<?xml version="1.0" standalone="no"?> 
<!DOCTYPE svg PUBLIC "-//W3C//DTD SVG 1.1//EN" "http://www.w3.org/Graphics/SVG/1.1/DTD/svg11.dtd" >
<svg xmlns="http://www.w3.org/2000/svg">
<defs>
  <font id="micon" horiz-adv-x="2620">
    <font-face font-family="micon"
      units-per-em="1792" ascent="1792"
      descent="0" />
    <missing-glyph horiz-adv-x="0" />
    <glyph glyph-name="Accept"
      unicode="&#xEA01;"
      horiz-adv-x="1792" d=" M560 256.375L16.625 800.625L95.375 879.375L560 415.625L1696.625 1551.375L1775.375 1472.625L560 256.375z" />
    <glyph glyph-name="Accident"
      unicode="&#xEA02;"
      horiz-adv-x="1792" d=" M560 672Q583.625 672 603.75 663.25T639.1875 639.1875T663.25 603.75T672 560T663.25 516.25T639.1875 480.8125T603.75 456.75T560 448T516.25 456.75T480.8125 480.8125T456.75 516.25T448 560T456.75 603.75T480.8125 639.1875T516.25 663.25T560 672zM1232 1344Q1255.625 1344 1275.75 1335.25T1311.1875 1311.1875T1335.25 1275.75T1344 1232T1335.25 1188.25T1311.1875 1152.8125T1275.75 1128.75T1232 1120T1188.25 1128.75T1152.8125 1152.8125T1128.75 1188.25T1120 1232T1128.75 1275.75T1152.8125 1311.1875T1188.25 1335.25T1232 1344zM1758.75 1119.125Q1792 1087.625 1792 1043Q1792 1022 1784.125 1002.75T1761.375 968.625L1692.25 898.625Q1677.375 883.75 1657.6875 875.875T1617.875 868Q1572.375 868 1540.875 901.25L890.75 251.125Q924 219.625 924 174.125Q924 154 916.125 134.3125T893.375 99.75L823.375 30.625Q792.75 0 749.875 0Q704.375 0 672.875 33.25L672 32.375Q652.75 52.5 632.625 72.1875T592.375 111.125V112L390.25 314.125Q375.375 329 362.6875 340.375T338.1875 363.125T314.5625 386.75T289.625 414.75Q288.75 415.625 278.25 436.625L230.125 532.875L217 560H134.75L95.375 520.625L16.625 599.375L89.25 672H161.875L35 924.875Q17.5 959.875 8.75 992.25T0 1064Q0 1088.5 4.375 1116.9375T17.9375 1173.375T40.25 1226.75T71.75 1269.625L525 1720.25Q542.5 1737.75 567.4375 1751.3125T619.9375 1774.0625T675.5 1787.625T728 1792Q767.375 1792 799.75 1783.25T867.125 1757L1120 1630.125V1702.75L1192.625 1775.375L1271.375 1696.625L1232 1657.25V1575Q1236.375 1573.25 1259.125 1561.875L1355.375 1513.75L1377.25 1502.375Q1393 1489.25 1405.25 1477T1428.875 1452.9375T1451.625 1428.875T1477.875 1401.75L1680 1199.625H1680.875Q1700.125 1179.5 1719.8125 1159.375T1759.625 1120zM112 1064Q112 1038.625 117.25 1019.375T133.875 977.375L239.75 766.5L1025.5 1552.25L812.875 1659Q791.875 1669.5 771.75 1674.75T728 1680Q713.125 1680 695.625 1677.375T660.1875 1669.0625T626.5 1655.5T600.25 1637.125L154.875 1194.375Q144.375 1183.875 136.0625 1167.6875T122.5 1133.125T114.625 1096.8125T112 1064zM980 499.625L1292.375 812L1285.375 819L1162.875 860.125L931.875 629.125L973 506.625zM1372 890.75Q1429.75 948.5 1486.1875 1005.375T1600.375 1120L1407 1313.375Q1393 1327.375 1382.0625 1339.625T1360.1875 1363.25T1337.875 1386T1310.75 1409.625Q1309.875 1410.5 1297.1875 1417.0625T1265.6875 1432.8125T1225 1452.9375T1183.4375 1473.5T1149.3125 1490.5625T1131.375 1499.75L292.25 660.625Q294 657.125 301.4375 642.6875T318.5 608.5625T339.0625 567T359.1875 526.3125T374.9375 494.8125T382.375 481.25Q394.625 465.5 406 454.125T428.75 431.8125T452.375 409.9375T478.625 385L672 191.625Q729.75 249.375 786.625 305.8125T901.25 420L875 445.375L804.125 658.875L1133.125 987.875L1346.625 917z" />
    <glyph glyph-name="AccidentSolid"
      unicode="&#xEA03;"
      horiz-adv-x="1792" d=" M1758.75 1119.125Q1792 1087.625 1792 1043Q1792 1022 1784.125 1002.75T1761.375 968.625L1692.25 898.625Q1677.375 883.75 1657.6875 875.875T1617.875 868Q1572.375 868 1540.875 901.25L890.75 251.125Q924 219.625 924 174.125Q924 154 916.125 134.3125T893.375 99.75L823.375 30.625Q792.75 0 749.875 0Q704.375 0 672.875 33.25L672 32.375Q652.75 52.5 632.625 72.1875T592.375 111.125V112L390.25 314.125Q375.375 329 362.6875 340.375T338.1875 363.125T314.5625 386.75T289.625 414.75Q288.75 415.625 278.25 436.625L230.125 532.875L217 560H134.75L95.375 520.625L16.625 599.375L89.25 672H161.875L35 924.875Q17.5 959.875 8.75 992.25T0 1064Q0 1088.5 4.375 1116.9375T17.9375 1173.375T40.25 1226.75T71.75 1269.625L525 1720.25Q542.5 1737.75 567.4375 1751.3125T619.9375 1774.0625T675.5 1787.625T728 1792Q767.375 1792 799.75 1783.25T867.125 1757L1120 1630.125V1702.75L1192.625 1775.375L1271.375 1696.625L1232 1657.25V1575Q1236.375 1573.25 1259.125 1561.875L1355.375 1513.75L1377.25 1502.375Q1393 1489.25 1405.25 1477T1428.875 1452.9375T1451.625 1428.875T1477.875 1401.75L1680 1199.625H1680.875Q1700.125 1179.5 1719.8125 1159.375T1759.625 1120zM672 560Q672 583.625 663.25 603.75T639.1875 639.1875T603.75 663.25T560 672T516.25 663.25T480.8125 639.1875T456.75 603.75T448 560T456.75 516.25T480.8125 480.8125T516.25 456.75T560 448T603.75 456.75T639.1875 480.8125T663.25 516.25T672 560zM1232 1120Q1255.625 1120 1275.75 1128.75T1311.1875 1152.8125T1335.25 1188.25T1344 1232T1335.25 1275.75T1311.1875 1311.1875T1275.75 1335.25T1232 1344T1188.25 1335.25T1152.8125 1311.1875T1128.75 1275.75T1120 1232T1128.75 1188.25T1152.8125 1152.8125T1188.25 1128.75T1232 1120zM1148 924L868 644L924 476L1316 868zM112 1064Q112 1038.625 117.25 1019.375T133.875 977.375L239.75 766.5L1025.5 1552.25L812.875 1659Q791.875 1669.5 771.75 1674.75T728 1680Q713.125 1680 695.625 1677.375T660.1875 1669.0625T626.5 1655.5T600.25 1637.125L154.875 1194.375Q144.375 1183.875 136.0625 1167.6875T122.5 1133.125T114.625 1096.8125T112 1064z" />
    <glyph glyph-name="Accounts"
      unicode="&#xEA04;"
      horiz-adv-x="1792" d=" M896 1792Q1019.375 1792 1134 1760.0625T1348.375 1669.9375T1529.9375 1529.9375T1669.9375 1348.375T1760.0625 1134T1792 896Q1792 847.875 1782.8125 795.8125T1755.25 693.875T1708.875 599.375T1643.6875 521.0625T1559.25 467.6875T1456 448Q1408.75 448 1363.6875 460.6875T1280.125 497T1209.6875 554.75T1156.75 631.75Q1130.5 590.625 1096.375 556.9375T1022 498.75T935.8125 461.125T840 448Q750.75 448 678.125 486.9375T554.3125 588.875T475.5625 732.375T448 896T475.5625 1059.625T554.3125 1203.125T678.125 1305.0625T840 1344Q923.125 1344 994.4375 1308.125T1120 1210.125V1344H1232V784Q1232 737.625 1249.5 696.9375T1297.625 625.625T1368.9375 577.5T1456 560Q1494.5 560 1526.4375 576.1875T1583.3125 619.0625T1626.625 680.3125T1656.8125 752.5T1674.3125 827.3125T1680 896Q1680 1003.625 1652 1103.8125T1572.8125 1291.0625T1449.875 1449.875T1291.0625 1572.8125T1103.8125 1652T896 1680T688.1875 1652T500.9375 1572.8125T342.125 1449.875T219.1875 1291.0625T140 1103.8125T112 896T140 688.1875T219.1875 500.9375T342.125 342.125T500.9375 219.1875T687.75 140T896 112Q1051.75 112 1196.125 171.5L1239 68.25Q1156.75 34.125 1070.5625 17.0625T896 0Q772.625 0 658 31.9375T443.625 122.0625T262.0625 262.0625T122.0625 443.625T31.9375 657.5625T0 896Q0 1019.375 31.9375 1134T122.0625 1348.375T262.0625 1529.9375T443.625 1669.9375T657.5625 1760.0625T896 1792zM840 560Q905.625 560 957.6875 590.1875T1045.625 668.5T1100.75 776.5625T1120 896T1100.75 1015.4375T1045.625 1123.5T957.6875 1201.8125T840 1232T722.3125 1201.8125T634.375 1123.5T579.25 1015.4375T560 896T579.25 776.5625T634.375 668.5T722.3125 590.1875T840 560z" />
    <glyph glyph-name="ActionCenter"
      unicode="&#xEA05;"
      horiz-adv-x="1792" d=" M0 1792H1792V336H1232L896 0L560 336H0V1792zM1680 448V1680H112V448H606.375L896 158.375L1185.625 448H1680z" />
    <glyph glyph-name="ActionCenterAsterisk"
      unicode="&#xEA06;"
      horiz-adv-x="1792" d=" M550.375 1603.875L392 1512L550.375 1420.125L494.375 1323.875L336 1414.875V1232H224V1414.875L65.625 1323.875L9.625 1420.125L168 1512L9.625 1603.875L65.625 1700.125L224 1609.125V1792H336V1609.125L494.375 1700.125L550.375 1603.875z" />
    <glyph glyph-name="ActionCenterMirrored"
      unicode="&#xEA07;"
      horiz-adv-x="1792" d=" M1792 1792H0.105V336H560.0717500000001L896.0525 0L1232.0315 336H1791.99825V1792zM112.1015 448V1680H1680.0052500000002V448H1185.66L896.0525 158.375L606.4449999999999 448H112.0997499999999z" />
    <glyph glyph-name="ActionCenterNotification"
      unicode="&#xEA08;"
      horiz-adv-x="1792" d=" M0 1792H1792V336H1232L896 0L560 336H0V1792zM1456 1120H336V1008H1456V1120zM1456 1456H336V1344H1456V1456zM1008 784H336V672H1008V784z" />
    <glyph glyph-name="ActionCenterNotificationMirrored"
      unicode="&#xEA09;"
      horiz-adv-x="1792" d=" M1792 1792H0.105V336H560.0717500000001L896.0525 0L1232.0315 336H1791.99825V1792zM336.08925 1120H1456.01925V1008H336.08925V1120zM336.08925 1456H1456.01925V1344H336.08925V1456zM784.06125 784H1456.021V672H784.063V784z" />
    <glyph glyph-name="ActionCenterQuiet"
      unicode="&#xEA0A;"
      horiz-adv-x="1792" d=" M1792 1792V751.625Q1767.5 778.75 1739.0625 801.9375T1680 844.375V1680H112V448H606.375L975.625 79.625L896 0L560 336H0V1792H1792zM1439.375 779.625Q1513.75 772.625 1578.5 739.375T1690.5 654.0625T1764.875 534.625T1792 392Q1792 310.625 1761.375 239.3125T1677.375 114.625T1552.6875 30.625T1400 0Q1334.375 0 1274.4375 21T1165.0625 79.1875T1079.3125 168.4375T1024.625 283.5Q1034.25 282.625 1044.3125 281.3125T1064 280Q1145.375 280 1216.6875 311.0625T1340.9375 395.0625T1424.9375 519.3125T1456 672Q1456 700 1451.1875 726.6875T1439.375 779.625zM1400 112Q1457.75 112 1508.9375 133.875T1598.1875 193.8125T1658.125 283.0625T1680 392Q1680 461.125 1650.25 518T1565.375 616.875Q1556.625 541.625 1526.875 473.375T1450.75 349.125T1342.6875 252T1208.375 189Q1247.75 152.25 1296.75 132.125T1400 112z" />
    <glyph glyph-name="ActionCenterQuietNotification"
      unicode="&#xEA0B;"
      horiz-adv-x="1792" d=" M1456 777.875Q1527.75 767.375 1589.4375 733.25T1696.1875 647.5T1766.625 530.25T1792 392Q1792 310.625 1761.375 239.3125T1677.375 114.625T1552.6875 30.625T1400 0Q1335.25 0 1275.3125 20.5625T1166.375 77.875T1081.0625 166.25T1026.375 280H1064Q1145.375 280 1216.6875 311.0625T1340.9375 395.0625T1424.9375 519.3125T1456 672V777.875zM1400 112Q1457.75 112 1508.9375 133.875T1598.1875 193.8125T1658.125 283.0625T1680 392Q1680 460.25 1650.25 518.4375T1565.375 616.875Q1556.625 541.625 1526.875 473.375T1450.75 349.5625T1342.6875 252.4375T1208.375 189Q1250.375 151.375 1297.1875 131.6875T1400 112zM1792 1792V708.75Q1756.125 753.375 1711.9375 788.375T1617.4375 847T1512 883.3125T1400 896H1344V672Q1344 614.25 1321.6875 563.0625T1261.3125 473.8125T1172.5 413.875T1064 392H896Q896 312.375 920.5 236.6875T992.25 96.25L896 0L560 336H0V1792H1792zM1008 784H336V672H1008V784zM1456 1120H336V1008H1456V1120zM1456 1456H336V1344H1456V1456z" />
    <glyph glyph-name="Add"
      unicode="&#xEA0C;"
      horiz-adv-x="1792" d=" M1792 952V840H952V0H840V840H0V952H840V1792H952V952H1792z" />
    <glyph glyph-name="AddFriend"
      unicode="&#xEA0D;"
      horiz-adv-x="1792" d=" M1792 336V224H1568V0H1456V224H1232V336H1456V560H1568V336H1792zM910 964.25Q993.125 932.75 1064.4375 881.125T1190.875 762.5625T1282.75 615.5625T1334.375 448H1220.625Q1200.5 546 1149.75 628.25T1025.9375 770T862.3125 862.75T672 896Q595 896 523.25 875.875T389.375 819.4375T276.0625 731.9375T188.5625 618.625T132.125 484.75T112 336H0Q0 441 31.0625 538.125T119 717.5T255.9375 863.625T434 964.25Q335.125 1029 279.5625 1127T224 1344Q224 1436.75 259 1518.5625T354.8125 1661.1875T497.4375 1757T672 1792T846.5625 1757T989.1875 1661.1875T1085 1518.5625T1120 1344Q1120 1286.25 1105.5625 1231.125T1064 1127T997.9375 1036.4375T910 964.25zM336 1344Q336 1274 362.25 1213.1875T434.4375 1106.4375T541.1875 1034.25T672 1008Q741.125 1008 802.375 1034.25T909.5625 1106.4375T981.75 1213.1875T1008 1344Q1008 1413.125 981.75 1474.375T909.5625 1581.5625T802.375 1653.75T672 1680Q602 1680 541.1875 1653.75T434.4375 1581.5625T362.25 1474.375T336 1344z" />
    <glyph glyph-name="AddRemoteDevice"
      unicode="&#xEA0E;"
      horiz-adv-x="1792" d=" M896 560V448H1120V336H560V448H784V560H448V336H0V1008H112V1456H1568V784H1456V1344H224V1008H448V672H1344V560H896zM336 448V896H112V448H336zM1568 448H1792V336H1568V112H1456V336H1232V448H1456V672H1568V448z" />
    <glyph glyph-name="AddSurfaceHub"
      unicode="&#xEA0F;"
      horiz-adv-x="1792" d=" M1568 448H1792V336H1568V112H1456V336H1232V448H1456V672H1568V448zM0 1456H1792V560H1680V1344H1568V784H1456V1344H336V448H1120V336H0V1456zM224 448V1344H112V448H224z" />
    <glyph glyph-name="AddTo"
      unicode="&#xEA10;"
      horiz-adv-x="1792" d=" M952 952H1232V840H952V560H840V840H560V952H840V1232H952V952zM896 1680Q1004.5 1680 1104.6875 1652T1291.9375 1572.8125T1450.3125 1450.3125T1572.8125 1291.9375T1652 1104.6875T1680 896T1652 687.3125T1572.8125 500.0625T1450.3125 341.6875T1291.9375 219.1875T1104.6875 140T896 112T687.3125 140T500.0625 219.1875T341.6875 341.6875T219.1875 500.0625T140 687.3125T112 896T140 1104.6875T219.1875 1291.9375T341.6875 1450.3125T500.0625 1572.8125T687.3125 1652T896 1680zM896 224Q988.75 224 1074.5 248.0625T1235.0625 315.875T1371.125 420.875T1476.125 556.9375T1543.9375 717.5T1568 896T1543.9375 1074.5T1476.125 1235.0625T1371.125 1371.125T1235.0625 1476.125T1074.5 1543.9375T896 1568T717.5 1543.9375T556.9375 1476.125T420.875 1371.125T315.875 1235.0625T248.0625 1074.5T224 896T248.0625 717.5T315.875 556.9375T420.875 420.875T556.9375 315.875T717.5 248.0625T896 224z" />
    <glyph glyph-name="AdjustHologram"
      unicode="&#xEA11;"
      horiz-adv-x="1792" d=" M1680 1120H1568V560H1680V224H1344V329L1008 161.875V0H672V161.875L336 329V224H0V560H112V1120H0V1456H322.875L672 1630.125V1792H1008V1630.125L1357.125 1456H1680V1120zM1456 1344V1232H1568V1344H1456zM784 1680V1568H896V1680H784zM1008 1456H672V1505.875L336 1337V1294.125L672 1127V1232H1008V1127L1344 1294.125V1337L1008 1505.875V1456zM784 1008H896V1120H784V1008zM112 1344V1232H224V1344H112zM224 336V448H112V336H224zM336 455L672 286.125V336H784V896H672V1001L336 1169.875V1120H224V560H336V455zM896 112V224H784V112H896zM1568 336V448H1456V336H1568zM1456 560V1120H1344V1169.875L1008 1001V896H896V336H1008V286.125L1344 455V560H1456z" />
    <glyph glyph-name="Admin"
      unicode="&#xEA12;"
      horiz-adv-x="1792" d=" M112 784H672V672H0V1568H1568V1207.5Q1539.125 1217.125 1512.4375 1232.875T1456 1260V1456H112V784zM1288 1120Q1339.625 1120 1382.5 1107.75T1470 1070.125Q1507.625 1048.25 1547 1036T1626.625 1017.625T1708.4375 1009.75T1792 1008V660.625Q1792 583.625 1771.875 514.5T1716.3125 383.6875T1632.75 267.75T1528.625 166.6875T1411.375 79.625T1288 6.125Q1225.875 39.375 1164.625 79.625T1047.375 166.6875T943.25 267.75T859.6875 383.6875T804.125 514.5T784 660.625V1008Q826.875 1008 867.5625 1009.75T948.0625 1017.625T1026.375 1036T1103.375 1070.125Q1148 1095.5 1191.75 1107.75T1288 1120zM1680 897.75Q1671.25 898.625 1648.0625 902.125T1595.5625 911.75T1533.875 925.75T1474.375 941.9375T1429.3125 959T1410.5 975.625Q1383.375 993.125 1351.875 1000.5625T1288 1008Q1254.75 1008 1223.25 1000.125T1163.75 975.625Q1162.875 975.625 1162.4375 974.3125T1161.125 973.875Q1100.75 938.875 1032.9375 920.5T896 897.75V660.625Q896 570.5 930.125 492.625T1019.8125 349.125T1145.8125 230.125T1288 134.75Q1359.75 176.75 1430.1875 230.125T1556.1875 349.125T1645.875 492.625T1680 660.625V897.75z" />
    <glyph glyph-name="Airplane"
      unicode="&#xEA13;"
      horiz-adv-x="1792" d=" M1568 1120Q1613.5 1120 1654.625 1102.0625T1725.9375 1053.9375T1774.0625 982.625T1792 896Q1792 849.625 1774.0625 808.9375T1725.9375 738.0625T1654.625 689.9375T1568 672H1176L840 0H448L672 672H448L392 560H0L112 896L0 1232H392L448 1120H672L448 1792H840L1176 1120H1568zM1568 784Q1591.625 784 1611.75 792.75T1647.1875 816.8125T1671.25 852.25T1680 896T1671.25 939.75T1647.1875 975.1875T1611.75 999.25T1568 1008H1106.875Q1020.25 1176 938 1343.5625T770.875 1680H603.75Q659.75 1511.125 714.875 1343.5625T827.75 1008H378.875L322.875 1120H155.75Q174.125 1064 192.0625 1008T230.125 896Q210 840 192.0625 784T155.75 672H322.875L378.875 784H827.75Q770 616 714.875 448.4375T603.75 112H770.875Q855.75 280.875 938 448.4375T1106.875 784H1568z" />
    <glyph glyph-name="AirplaneSolid"
      unicode="&#xEA14;"
      horiz-adv-x="1792" d=" M1624 1120Q1659 1120 1689.625 1106.875T1743 1071T1778.875 1017.625T1792 952T1778.875 886.375T1743 833T1689.625 797.125T1624 784H1148L812 112H579.25L803.25 784H224L165.375 672H0L94.5 952L0 1232H165.375L224 1120H803.25L579.25 1792H812L1148 1120H1624z" />
    <glyph glyph-name="AlignCenter"
      unicode="&#xEA15;"
      horiz-adv-x="1792" d=" M0 1680H1792V1568H0V1680zM224 1344H1568V1232H224V1344zM224 672H1568V560H224V672zM0 224V336H1792V224H0zM0 896V1008H1792V896H0z" />
    <glyph glyph-name="AlignLeft"
      unicode="&#xEA16;"
      horiz-adv-x="1792" d=" M1792 1680V1568H0V1680H1792zM1792 224H0V336H1792V224zM1792 896H0V1008H1792V896zM1344 1232H0V1344H1344V1232zM1344 560H0V672H1344V560z" />
    <glyph glyph-name="AlignRight"
      unicode="&#xEA17;"
      horiz-adv-x="1792" d=" M0 1680H1792V1568H0V1680zM0 224V336H1792V224H0zM0 896V1008H1792V896H0zM448 1232V1344H1792V1232H448zM448 560V672H1792V560H448z" />
    <glyph glyph-name="AllApps"
      unicode="&#xEA18;"
      horiz-adv-x="1792" d=" M0 560V896H336V560H0zM112 784V672H224V784H112zM0 1008V1344H336V1008H0zM112 1232V1120H224V1232H112zM0 1456V1792H336V1456H0zM112 1680V1568H224V1680H112zM560 1120V1232H1568V1120H560zM1344 784V672H560V784H1344zM560 1680H1792V1568H560V1680zM0 112V448H336V112H0zM112 336V224H224V336H112zM560 224V336H1568V224H560z" />
    <glyph glyph-name="AllAppsMirrored"
      unicode="&#xEA19;"
      horiz-adv-x="1792" d=" M1792 560V896H1456.021V560H1792zM1680.00875 784V672H1568.01575V784H1680.00875zM1792 1008V1344H1456.021V1008H1792zM1680.00875 1232V1120H1568.01575V1232H1680.00875zM1792 1456V1792H1456.021V1456H1792zM1680.00875 1680V1568H1568.01575V1680H1680.00875zM1232.0349999999999 1120V1232H224.0962499999998V1120H1232.0349999999999zM448.0822499999998 784V672H1232.0349999999999V784H448.0822499999998zM1232.0349999999999 1680H0.1137499999998V1568H1232.0349999999999V1680zM1792 112V448H1456.021V112H1792zM1680.00875 336V224H1568.01575V336H1680.00875zM1232.0349999999999 224V336H224.0962499999998V224H1232.0349999999999z" />
    <glyph glyph-name="Annotation"
      unicode="&#xEA1A;"
      horiz-adv-x="1792" d=" M975.625 896H1568L1456 784H863.625L588.875 510.125Q628.25 478.625 650.125 432.6875T672 336Q672 289.625 654.0625 248.9375T605.9375 178.0625T534.625 129.9375T448 112Q401.625 112 360.9375 129.9375T290.0625 178.0625T241.9375 248.9375T224 336Q224 381.5 241.9375 422.625T290.0625 493.9375T360.9375 542.0625T448 560L478.625 558.25L704.375 784H418.25Q387.625 732.375 336 702.1875T224 672Q177.625 672 136.9375 689.9375T66.0625 738.0625T17.9375 808.9375T0 896Q0 941.5 17.9375 982.625T66.0625 1053.9375T136.9375 1102.0625T224 1120Q269.5 1120 310.625 1102.0625T381.9375 1053.9375T430.0625 982.625T448 896H816.375L1264.375 1344H1423.625zM224 784Q247.625 784 267.75 792.75T303.1875 816.8125T327.25 852.25T336 896T327.25 939.75T303.1875 975.1875T267.75 999.25T224 1008T180.25 999.25T144.8125 975.1875T120.75 939.75T112 896T120.75 852.25T144.8125 816.8125T180.25 792.75T224 784zM448 224Q471.625 224 491.75 232.75T527.1875 256.8125T551.25 292.25T560 336T551.25 379.75T527.1875 415.1875T491.75 439.25T448 448T404.25 439.25T368.8125 415.1875T344.75 379.75T336 336T344.75 292.25T368.8125 256.8125T404.25 232.75T448 224zM1680 1568H1792V1456H1680V1568zM1792 1792V1680H1680V1792H1792zM1456 1792H1568V1680H1456V1792zM1344 1680H1232V1792H1344V1680zM1120 1680H1008V1792H1120V1680zM896 1680H784V1792H896V1680zM672 1680H560V1792H672V1680zM448 1680H336V1792H448V1680zM448 1456H336V1568H448V1456zM448 1232H336V1344H448V1232zM1680 1344H1792V1232H1680V1344zM1680 1120H1792V1008H1680V1120zM1680 896H1792V784H1680V896zM1680 672H1792V560H1680V672zM1680 448H1792V336H1680V448zM1456 448H1568V336H1456V448zM1232 448H1344V336H1232V448zM1008 448H1120V336H1008V448zM784 448H896V336H784V448z" />
    <glyph glyph-name="AppIconDefault"
      unicode="&#xEA1B;"
      horiz-adv-x="1792" d=" M0 1792H1680V896H896V112H0V1792zM784 224V896H112V224H784zM784 1008V1680H112V1008H784zM1568 1008V1680H896V1008H1568z" />
    <glyph glyph-name="AspectRatio"
      unicode="&#xEA1C;"
      horiz-adv-x="1792" d=" M0 1456V1568H112V1456H0zM0 1232V1344H112V1232H0zM0 1008V1120H112V1008H0zM0 784V896H112V784H0zM0 336V448H112V336H0zM224 1456V1568H336V1456H224zM224 336V448H336V336H224zM1680 336V448H1792V336H1680zM0 560V672H112V560H0zM1680 560V672H1792V560H1680zM1680 784V896H1792V784H1680zM1680 1008V1120H1792V1008H1680zM1680 1232V1344H1792V1232H1680zM1680 1568H1792V1456H1680V1568zM1456 336V448H1568V336H1456zM1456 1456V1568H1568V1456H1456zM448 336V1568H1344V336H448zM560 1456V448H1232V1456H560z" />
    <glyph glyph-name="Asterisk"
      unicode="&#xEA1D;"
      horiz-adv-x="1792" d=" M1700.125 1295L1008 896L1700.125 497L1644.125 399L952 798.875V0H840V798.875L147.875 399L91.875 497L784 896L91.875 1295L147.875 1393L840 993.125V1792H952V993.125L1644.125 1393L1700.125 1295z" />
    <glyph glyph-name="AsteriskBadge12"
      unicode="&#xEA1E;"
      horiz-adv-x="1792" d=" M1515.5 1167.25L1045.625 896L1515.5 624.75L1440.25 495.25L970.375 766.5V224H821.625V766.5L351.75 495.25L276.5 624.75L746.375 896L276.5 1167.25L351.75 1296.75L821.625 1025.5V1568H970.375V1025.5L1440.25 1296.75L1515.5 1167.25z" />
    <glyph glyph-name="Attach"
      unicode="&#xEA1F;"
      horiz-adv-x="1792" d=" M1344 1456V392Q1344 310.625 1312.9375 239.3125T1228.9375 115.0625T1104.6875 31.0625T952 0T799.3125 31.0625T675.0625 115.0625T591.0625 239.3125T560 392V1512Q560 1569.75 582.3125 1620.5T642.6875 1709.3125T731.5 1769.6875T840 1792T948.5 1769.6875T1037.3125 1709.3125T1097.6875 1620.5T1120 1512V392Q1120 357 1106.875 326.375T1071 273T1017.625 237.125T952 224T886.375 237.125T833 273T797.125 326.375T784 392V1344H896V392Q896 369.25 912.625 352.625T952 336T991.375 352.625T1008 392V1512Q1008 1547 994.875 1577.625T959 1631T905.625 1666.875T840 1680T774.375 1666.875T721 1631T685.125 1577.625T672 1512V392Q672 334.25 694.3125 283.5T754.6875 194.6875T843.5 134.3125T952 112T1060.5 134.3125T1149.3125 194.6875T1209.6875 283.5T1232 392V1456H1344z" />
    <glyph glyph-name="AttachCamera"
      unicode="&#xEA20;"
      horiz-adv-x="1792" d=" M1792 447.125H994Q973.875 373.625 932.3125 311.9375T833.4375 205.625T706.125 136.5T560 112Q467.25 112 385.4375 147T242.8125 242.8125T147 385.4375T112 560V896H0V1568H336V896H224V560Q224 490.875 250.6875 429.625T322.875 322.875T429.625 250.6875T560 224Q613.375 224 662.8125 240.1875T753.8125 285.6875T826.875 356.125T876.75 447.125H448V1567.125H703.5L815.5 1679.125H1421.875L1533.875 1567.125H1792V447.125zM224 1008V1232H112V1008H224zM112 1456V1344H224V1456H112zM1680 1455.125H1487.5L1375.5 1567.125H861.875L749.875 1455.125H560V559.125H896V560H1008V559.125H1680V1455.125zM1120 1343.125Q1189.125 1343.125 1250.375 1316.4375T1357.125 1244.25T1429.3125 1137.5T1456 1007.125T1429.3125 876.75T1357.125 770T1250.375 697.8125T1120 671.125T989.625 697.8125T882.875 770T810.6875 876.75T784 1007.125T810.6875 1137.5T882.875 1244.25T989.625 1316.4375T1120 1343.125zM1120 783.125Q1165.5 783.125 1206.625 801.0625T1277.9375 849.1875T1326.0625 920.0625T1344 1007.125Q1344 1052.625 1326.0625 1093.75T1277.9375 1165.0625T1206.625 1213.1875T1120 1231.125Q1073.625 1231.125 1032.9375 1213.1875T962.0625 1165.0625T913.9375 1093.75T896 1007.125Q896 960.75 913.9375 920.0625T962.0625 849.1875T1032.9375 801.0625T1120 783.125zM728 1343.125Q750.75 1343.125 766.9375 1326.9375T783.125 1288T766.9375 1249.0625T728 1232.875T689.0625 1249.0625T672.875 1288T689.0625 1326.9375T728 1343.125z" />
    <glyph glyph-name="Audio"
      unicode="&#xEA21;"
      horiz-adv-x="1792" d=" M560 756Q560 711.375 540.75 675.0625T490 612.9375T418.25 573.5625T336 560T253.75 573.5625T182 612.9375T131.25 675.0625T112 756T131.25 836.9375T182 899.0625T253.75 938.4375T336 952Q364.875 952 393.75 945.4375T448 925.75V1680H560Q560 1624 584.9375 1579.375T651.875 1498.875Q713.125 1446.375 748.5625 1380.3125T784 1232H672Q672 1287.125 647.0625 1333.0625T580.125 1413.125L569.625 1421.875L560 1430.625V756zM336 672Q353.5 672 373.1875 677.25T409.5 693T437.0625 719.25T448 756T437.0625 792.75T409.5 819T373.1875 834.75T336 840T298.8125 834.75T262.5 819T234.9375 792.75T224 756T234.9375 719.25T262.5 693T298.8125 677.25T336 672zM1680 420Q1680 375.375 1660.75 339.0625T1610 276.9375T1538.25 237.5625T1456 224T1373.75 237.5625T1302 276.9375T1251.25 339.0625T1232 420T1251.25 500.9375T1302 563.0625T1373.75 602.4375T1456 616Q1484.875 616 1513.75 609.4375T1568 589.75V1174.25L1008 1034.25V308Q1008 263.375 988.75 227.0625T938 164.9375T866.25 125.5625T784 112T701.75 125.5625T630 164.9375T579.25 227.0625T560 308T579.25 388.9375T630 451.0625T701.75 490.4375T784 504Q812.875 504 841.75 497.4375T896 477.75V1121.75L1680 1317.75V420zM784 224Q801.5 224 821.1875 229.25T857.5 245T885.0625 271.25T896 308T885.0625 344.75T857.5 371T821.1875 386.75T784 392T746.8125 386.75T710.5 371T682.9375 344.75T672 308T682.9375 271.25T710.5 245T746.8125 229.25T784 224zM1456 336Q1473.5 336 1493.1875 341.25T1529.5 357T1557.0625 383.25T1568 420T1557.0625 456.75T1529.5 483T1493.1875 498.75T1456 504T1418.8125 498.75T1382.5 483T1354.9375 456.75T1344 420T1354.9375 383.25T1382.5 357T1418.8125 341.25T1456 336z" />
    <glyph glyph-name="Back"
      unicode="&#xEA22;"
      horiz-adv-x="1792" d=" M1792 952V840H218.75L907.375 151.375L828.625 72.625L5.25 896L828.625 1719.375L907.375 1640.625L218.75 952H1792z" />
    <glyph glyph-name="BackSpaceQWERTYLg"
      unicode="&#xEA23;"
      horiz-adv-x="1101" d=" M448 960H1101V64H448L0 512zM1037 128V896H474.5L90.5 512L474.5 128H1037zM470.5 681.5L516 726.5L685.5 557.5L854.5 726.5L900 681.5L730.5 512L900 342.5L854.5 297.5L685.5 466.5L516 297.5L470.5 342.5L640 512z" />
    <glyph glyph-name="BackSpaceQWERTYMd"
      unicode="&#xEA24;"
      horiz-adv-x="1792" d=" M879.375 688.625L800.625 767.375L928.375 896L800.625 1024.625L879.375 1103.375L1008 975.625L1136.625 1103.375L1215.375 1024.625L1087.625 896L1215.375 767.375L1136.625 688.625L1008 816.375zM649.25 1344H1456V448H649.25L201.25 896zM1344 560V1232H694.75L358.75 896L694.75 560H1344z" />
    <glyph glyph-name="BackSpaceQWERTYSm"
      unicode="&#xEA25;"
      horiz-adv-x="1792" d=" M879.375 688.625L800.625 767.375L928.375 896L800.625 1024.625L879.375 1103.375L1008 975.625L1136.625 1103.375L1215.375 1024.625L1087.625 896L1215.375 767.375L1136.625 688.625L1008 816.375zM672 1344H1456V448H672L224 896zM1344 560V1232H718.375L382.375 896L718.375 560H1344z" />
    <glyph glyph-name="BackToWindow"
      unicode="&#xEA26;"
      horiz-adv-x="1792" d=" M224 672V784H784V224H672V592.375L81.375 2.625L2.625 81.375L592.375 672H224zM1789.375 1710.625L1199.625 1120H1568V1008H1008V1568H1120V1199.625L1710.625 1789.375z" />
    <glyph glyph-name="BackgroundToggle"
      unicode="&#xEA27;"
      horiz-adv-x="1792" d=" M896 896H1344V0H448V560H0V1456H896V896zM784 672V1344H112V672H784zM1719.375 1192.625L1512 985.25L1304.625 1192.625L1383.375 1271.375L1456 1199.625V1344Q1456 1367.625 1447.25 1387.75T1423.1875 1423.1875T1387.75 1447.25T1344 1456H1199.625L1271.375 1383.375L1192.625 1304.625L985.25 1512L1192.625 1719.375L1271.375 1640.625L1199.625 1568H1344Q1390.375 1568 1431.0625 1550.5T1502.375 1502.375T1550.5 1431.0625T1568 1344V1199.625L1640.625 1271.375z" />
    <glyph glyph-name="Badge"
      unicode="&#xEA28;"
      horiz-adv-x="1792" d=" M1568 1231.125Q1568 1211 1578.5 1185.1875T1604.3125 1133.125T1636.25 1083.25T1666 1044.75Q1729 969.5 1760.5 889T1792 708.75Q1792 614.25 1751.3125 533.3125T1644.125 387.625Q1610.875 355.25 1569.75 325.5T1483.5625 270.8125T1391.6875 227.0625T1299.375 196.875Q1199.625 172.375 1107.3125 140.875T923.125 63Q909.125 56 896 56T868.875 63Q777 109.375 684.6875 140.875T492.625 196.875Q447.125 208.25 400.3125 227.0625T308.4375 270.8125T222.25 325.5T147.875 387.625Q81.375 452.375 40.6875 533.3125T0 708.75Q0 808.5 31.5 888.5625T126 1044.75Q138.25 1059.625 155.3125 1083.25T187.6875 1133.125T213.5 1185.1875T224 1231.125Q224 1288.875 200.375 1330.4375T134.75 1408.75Q123.375 1418.375 118.125 1429.3125T112.875 1455.125Q112.875 1477 128.625 1492.75L351.75 1719.375Q359.625 1727.25 370.5625 1731.625T392 1736Q405.125 1736 413.875 1731.625T432.25 1718.5Q469 1685.25 508.8125 1669.5T598.5 1653.75Q630.875 1653.75 666.75 1661.1875T736.3125 1683.0625T799.3125 1718.0625T848.75 1765.75Q858.375 1778 869.3125 1785T896 1792T922.6875 1785T943.25 1765.75Q962.5 1738.625 992.25 1718.0625T1055.6875 1683.0625T1125.25 1661.1875T1193.5 1653.75Q1243.375 1653.75 1283.1875 1669.5T1359.75 1718.5Q1369.375 1727.25 1378.125 1731.625T1399.125 1736Q1423.625 1736 1440.25 1719.375L1663.375 1492.75Q1679.125 1477 1679.125 1455.125Q1679.125 1440.25 1673.875 1429.3125T1657.25 1408.75Q1615.25 1372 1591.625 1330.4375T1568 1231.125zM896 175Q966.875 211.75 1040.8125 238.4375T1190.875 285.25Q1211.875 291.375 1232.875 295.75T1274.875 306.25Q1320.375 318.5 1368.0625 339.0625T1460.375 387.1875T1545.25 449.3125T1615.25 525T1662.5 613.375T1680 713.125Q1680 777 1666.4375 820.75T1630.5625 900.8125T1579.375 972.5625T1520.75 1055.25Q1508.5 1073.625 1497.125 1095.0625T1476.5625 1139.25T1461.6875 1185.1875T1456 1231.125Q1456 1294.125 1478.3125 1351.875T1542.625 1456L1396.5 1603.875Q1351.875 1572.375 1299.8125 1557.0625T1193.5 1541.75Q1157.625 1541.75 1116.5 1549.625T1035.5625 1571.5T959 1605.625T896 1650.25Q868.875 1625.75 832.5625 1605.625T756 1571.5T675.0625 1549.625T598.5 1541.75Q544.25 1541.75 492.1875 1557.0625T395.5 1603.875L249.375 1456Q291.375 1409.625 313.6875 1351.875T336 1231.125Q336 1208.375 330.3125 1185.1875T315.4375 1139.25T294.4375 1095.0625T271.25 1055.25Q241.5 1008 212.625 972.5625T161.4375 900.8125T125.5625 820.75T112 713.125Q112 660.625 129.5 613.375T176.75 525T246.75 449.3125T331.625 387.1875T423.9375 339.0625T517.125 306.25Q538.125 300.125 559.125 295.75T601.125 285.25Q677.25 265.125 751.1875 238.4375T896 175z" />
    <glyph glyph-name="Bank"
      unicode="&#xEA29;"
      horiz-adv-x="1792" d=" M1568 1120V448Q1568 447.125 1575.875 423.9375T1595.5625 365.3125L1621.375 287.875L1647.625 208.6875L1669.0625 144.8125L1680 112H0Q1.75 118.125 10.9375 144.8125T32.375 208.6875T58.625 287.875L84.4375 365.3125L104.125 423.9375L112 448V1120H0V1232L840 1652L1680 1232V1120H1568zM250.25 1232H1429.75L840 1526.875zM1344 1120V448H1456V1120H1344zM1120 1120V448H1232V1120H1120zM896 1120V448H1008V1120H896zM672 1120V448H784V1120H672zM448 1120V448H560V1120H448zM224 448H336V1120H224V448zM1524.25 224L1487.5 336H192.5L155.75 224H1524.25z" />
    <glyph glyph-name="BarcodeScanner"
      unicode="&#xEA2A;"
      horiz-adv-x="1792" d=" M1680 1232Q1680 1180.375 1664.25 1131.8125T1620.5 1041.6875T1552.25 968.1875T1463.875 917.875L1634.5 67.375Q1635.375 63.875 1635.375 57.75Q1635.375 34.125 1619.625 17.0625T1579.375 0H952Q929.25 0 912.625 16.625T896 56T912.625 95.375T952 112H1063.125L973 560H658Q635.25 560 618.625 576.625T602 616Q602 631.75 612.9375 646.1875T637 679T661.0625 722.3125T672 784V951.125L386.75 1008Q377.125 1009.75 370.125 1014.5625T356.125 1026.375Q293.125 1097.25 259.4375 1187.8125T225.75 1372.875Q225.75 1422.75 235.375 1472.625T263.8125 1569.3125T309.75 1659T371.875 1736.875Q389.375 1754.375 413 1754.375Q423.5 1754.375 448.875 1749.5625T503.125 1739.0625T558.6875 1727.25T598.5 1718.5L1455.125 1547Q1504.125 1537.375 1545.25 1512T1616.5625 1449.875T1663.375 1367.625T1680 1272.25V1232zM1568 1272.25Q1568 1302 1557.9375 1329.125T1529.9375 1378.125T1487.0625 1415.3125T1433.25 1436.75L643.125 1595.125Q609 1547 588 1491.875T562.625 1378.125L1561 1178.625Q1568 1206.625 1568 1232V1272.25zM433.125 1637.125Q386.75 1581.125 362.25 1513.3125T337.75 1373.75Q337.75 1302.875 361.375 1235.9375T428.75 1113.875L507.5 1098.125Q479.5 1155 464.625 1217.125T449.75 1342.25Q449.75 1415.75 469 1485.75T525 1618.75zM951.125 672L904.75 904.75L784 928.375Q784 896 785.3125 863.625T785.3125 798.875T779.1875 734.5625T762.125 672H951.125zM1343.125 957.25Q1343.125 978.25 1355.375 993.125T1387.75 1012.375Q1421.875 1020.25 1449.875 1035.125T1503.25 1075.375L567.875 1262.625Q577.5 1208.375 601.125 1159.375T658.875 1067.5L963.375 1007.125Q980 1003.625 991.8125 991.8125T1007.125 963.375L1176.875 112H1511.125L1344 946.75Q1343.125 950.25 1343.125 957.25z" />
    <glyph glyph-name="Battery0"
      unicode="&#xEA2B;"
      horiz-adv-x="1792" d=" M1568 840H1624V728H1568V448H224V1120H1568V840zM1512 504V1064H280V504H1512z" />
    <glyph glyph-name="Battery1"
      unicode="&#xEA2C;"
      horiz-adv-x="1792" d=" M1568 840H1624V728H1568V448H224V1120H1568V840zM1512 504V1064H280V504H1512zM448 1008V560H336V1008H448z" />
    <glyph glyph-name="Battery10"
      unicode="&#xEA2D;"
      horiz-adv-x="1792" d=" M1568 840H1624V728H1568V448H224V1120H1568V840zM1512 504V1064H280V504H1512zM1456 1008V560H336V1008H1456z" />
    <glyph glyph-name="Battery2"
      unicode="&#xEA2E;"
      horiz-adv-x="1792" d=" M1568 840H1624V728H1568V448H224V1120H1568V840zM1512 504V1064H280V504H1512zM560 1008V560H336V1008H560z" />
    <glyph glyph-name="Battery3"
      unicode="&#xEA2F;"
      horiz-adv-x="1792" d=" M1568 840H1624V728H1568V448H224V1120H1568V840zM1512 504V1064H280V504H1512zM672 1008V560H336V1008H672z" />
    <glyph glyph-name="Battery4"
      unicode="&#xEA30;"
      horiz-adv-x="1792" d=" M1568 840H1624V728H1568V448H224V1120H1568V840zM1512 504V1064H280V504H1512zM784 1008V560H336V1008H784z" />
    <glyph glyph-name="Battery5"
      unicode="&#xEA31;"
      horiz-adv-x="1792" d=" M1568 840H1624V728H1568V448H224V1120H1568V840zM1512 504V1064H280V504H1512zM896 1008V560H336V1008H896z" />
    <glyph glyph-name="Battery6"
      unicode="&#xEA32;"
      horiz-adv-x="1792" d=" M1568 840H1624V728H1568V448H224V1120H1568V840zM1512 504V1064H280V504H1512zM1008 1008V560H336V1008H1008z" />
    <glyph glyph-name="Battery7"
      unicode="&#xEA33;"
      horiz-adv-x="1792" d=" M1568 840H1624V728H1568V448H224V1120H1568V840zM1512 504V1064H280V504H1512zM1120 1008V560H336V1008H1120z" />
    <glyph glyph-name="Battery8"
      unicode="&#xEA34;"
      horiz-adv-x="1792" d=" M1568 840H1624V728H1568V448H224V1120H1568V840zM1512 504V1064H280V504H1512zM1232 1008V560H336V1008H1232z" />
    <glyph glyph-name="Battery9"
      unicode="&#xEA35;"
      horiz-adv-x="1792" d=" M1568 840H1624V728H1568V448H224V1120H1568V840zM1512 504V1064H280V504H1512zM1344 1008V560H336V1008H1344z" />
    <glyph glyph-name="BatteryCharging0"
      unicode="&#xEA36;"
      horiz-adv-x="1792" d=" M1624 840V728H1568V448H336V504H1512V1064H448V1120H1568V840H1624zM392 980Q392 955.5 383.6875 932.75T360.5 891.625T325.0625 860.5625T280 842.625V448H224V842.625Q199.5 847.875 178.9375 860.5625T143.5 891.625T120.3125 932.75T112 980V1120H168V1232H224V1120H280V1232H336V1120H392V980zM168 980Q168 945 192.5 920.5T252 896T311.5 920.5T336 980V1064H168V980z" />
    <glyph glyph-name="BatteryCharging1"
      unicode="&#xEA37;"
      horiz-adv-x="1792" d=" M1624 840V728H1568V448H336V504H1512V1064H448V1120H1568V840H1624zM392 980Q392 955.5 383.6875 932.75T360.5 891.625T325.0625 860.5625T280 842.625V448H224V842.625Q199.5 847.875 178.9375 860.5625T143.5 891.625T120.3125 932.75T112 980V1120H168V1232H224V1120H280V1232H336V1120H392V980zM168 980Q168 945 192.5 920.5T252 896T311.5 920.5T336 980V1064H168V980zM336 803.25Q386.75 827.75 417.375 875.4375T448 980V560H336V803.25z" />
    <glyph glyph-name="BatteryCharging10"
      unicode="&#xEA38;"
      horiz-adv-x="1792" d=" M1624 840V728H1568V448H336V504H1512V1064H448V1120H1568V840H1624zM392 980Q392 955.5 383.6875 932.75T360.5 891.625T325.0625 860.5625T280 842.625V448H224V842.625Q199.5 847.875 178.9375 860.5625T143.5 891.625T120.3125 932.75T112 980V1120H168V1232H224V1120H280V1232H336V1120H392V980zM168 980Q168 945 192.5 920.5T252 896T311.5 920.5T336 980V1064H168V980zM336 803.25Q386.75 827.75 417.375 875.4375T448 980V1008H1456V560H336V803.25z" />
    <glyph glyph-name="BatteryCharging2"
      unicode="&#xEA39;"
      horiz-adv-x="1792" d=" M1624 840V728H1568V448H336V504H1512V1064H448V1120H1568V840H1624zM392 980Q392 955.5 383.6875 932.75T360.5 891.625T325.0625 860.5625T280 842.625V448H224V842.625Q199.5 847.875 178.9375 860.5625T143.5 891.625T120.3125 932.75T112 980V1120H168V1232H224V1120H280V1232H336V1120H392V980zM168 980Q168 945 192.5 920.5T252 896T311.5 920.5T336 980V1064H168V980zM336 803.25Q386.75 827.75 417.375 875.4375T448 980V1008H560V560H336V803.25z" />
    <glyph glyph-name="BatteryCharging3"
      unicode="&#xEA3A;"
      horiz-adv-x="1792" d=" M1624 840V728H1568V448H336V504H1512V1064H448V1120H1568V840H1624zM392 980Q392 955.5 383.6875 932.75T360.5 891.625T325.0625 860.5625T280 842.625V448H224V842.625Q199.5 847.875 178.9375 860.5625T143.5 891.625T120.3125 932.75T112 980V1120H168V1232H224V1120H280V1232H336V1120H392V980zM168 980Q168 945 192.5 920.5T252 896T311.5 920.5T336 980V1064H168V980zM336 803.25Q386.75 827.75 417.375 875.4375T448 980V1008H672V560H336V803.25z" />
    <glyph glyph-name="BatteryCharging4"
      unicode="&#xEA3B;"
      horiz-adv-x="1792" d=" M1624 840V728H1568V448H336V504H1512V1064H448V1120H1568V840H1624zM392 980Q392 955.5 383.6875 932.75T360.5 891.625T325.0625 860.5625T280 842.625V448H224V842.625Q199.5 847.875 178.9375 860.5625T143.5 891.625T120.3125 932.75T112 980V1120H168V1232H224V1120H280V1232H336V1120H392V980zM168 980Q168 945 192.5 920.5T252 896T311.5 920.5T336 980V1064H168V980zM336 803.25Q386.75 827.75 417.375 875.4375T448 980V1008H784V560H336V803.25z" />
    <glyph glyph-name="BatteryCharging5"
      unicode="&#xEA3C;"
      horiz-adv-x="1792" d=" M1624 840V728H1568V448H336V504H1512V1064H448V1120H1568V840H1624zM392 980Q392 955.5 383.6875 932.75T360.5 891.625T325.0625 860.5625T280 842.625V448H224V842.625Q199.5 847.875 178.9375 860.5625T143.5 891.625T120.3125 932.75T112 980V1120H168V1232H224V1120H280V1232H336V1120H392V980zM168 980Q168 945 192.5 920.5T252 896T311.5 920.5T336 980V1064H168V980zM336 803.25Q386.75 827.75 417.375 875.4375T448 980V1008H896V560H336V803.25z" />
    <glyph glyph-name="BatteryCharging6"
      unicode="&#xEA3D;"
      horiz-adv-x="1792" d=" M1624 840V728H1568V448H336V504H1512V1064H448V1120H1568V840H1624zM392 980Q392 955.5 383.6875 932.75T360.5 891.625T325.0625 860.5625T280 842.625V448H224V842.625Q199.5 847.875 178.9375 860.5625T143.5 891.625T120.3125 932.75T112 980V1120H168V1232H224V1120H280V1232H336V1120H392V980zM168 980Q168 945 192.5 920.5T252 896T311.5 920.5T336 980V1064H168V980zM336 803.25Q386.75 827.75 417.375 875.4375T448 980V1008H1008V560H336V803.25z" />
    <glyph glyph-name="BatteryCharging7"
      unicode="&#xEA3E;"
      horiz-adv-x="1792" d=" M1624 840V728H1568V448H336V504H1512V1064H448V1120H1568V840H1624zM392 980Q392 955.5 383.6875 932.75T360.5 891.625T325.0625 860.5625T280 842.625V448H224V842.625Q199.5 847.875 178.9375 860.5625T143.5 891.625T120.3125 932.75T112 980V1120H168V1232H224V1120H280V1232H336V1120H392V980zM168 980Q168 945 192.5 920.5T252 896T311.5 920.5T336 980V1064H168V980zM336 803.25Q386.75 827.75 417.375 875.4375T448 980V1008H1120V560H336V803.25z" />
    <glyph glyph-name="BatteryCharging8"
      unicode="&#xEA3F;"
      horiz-adv-x="1792" d=" M1624 840V728H1568V448H336V504H1512V1064H448V1120H1568V840H1624zM392 980Q392 955.5 383.6875 932.75T360.5 891.625T325.0625 860.5625T280 842.625V448H224V842.625Q199.5 847.875 178.9375 860.5625T143.5 891.625T120.3125 932.75T112 980V1120H168V1232H224V1120H280V1232H336V1120H392V980zM168 980Q168 945 192.5 920.5T252 896T311.5 920.5T336 980V1064H168V980zM336 803.25Q386.75 827.75 417.375 875.4375T448 980V1008H1232V560H336V803.25z" />
    <glyph glyph-name="BatteryCharging9"
      unicode="&#xEA40;"
      horiz-adv-x="1792" d=" M1624 840V728H1568V448H336V504H1512V1064H448V1120H1568V840H1624zM392 980Q392 955.5 383.6875 932.75T360.5 891.625T325.0625 860.5625T280 842.625V448H224V842.625Q199.5 847.875 178.9375 860.5625T143.5 891.625T120.3125 932.75T112 980V1120H168V1232H224V1120H280V1232H336V1120H392V980zM168 980Q168 945 192.5 920.5T252 896T311.5 920.5T336 980V1064H168V980zM336 803.25Q386.75 827.75 417.375 875.4375T448 980V1008H1344V560H336V803.25z" />
    <glyph glyph-name="BatterySaver0"
      unicode="&#xEA41;"
      horiz-adv-x="1792" d=" M1624 840V728H1568V448H336V504H1512V1064H427.875Q420.875 1080.625 411.25 1092.4375T390.25 1118.25L389.375 1120H1568V840H1624zM391.125 980Q391.125 955.5 382.8125 932.75T359.625 891.625T324.625 860.125T280 842.625V448H224V842.625Q199.5 847 178.9375 860.125T143.5 891.625T120.3125 932.75T112 980Q112 1008 122.5 1033.375T153.125 1078.875L252 1177.75L350.875 1078.875Q371 1058.75 381.0625 1033.375T391.125 980zM168 980Q168 953.75 183.3125 931.4375T224 901.25V1008H280V901.25Q305.375 909.125 320.6875 931.4375T336 980Q336 1015 311.5 1039.5L252 1099L192.5 1039.5Q168 1015 168 980z" />
    <glyph glyph-name="BatterySaver1"
      unicode="&#xEA42;"
      horiz-adv-x="1792" d=" M1624 840V728H1568V448H336V504H1512V1064H427.875Q420.875 1080.625 411.25 1092.4375T390.25 1118.25L389.375 1120H1568V840H1624zM391.125 980Q391.125 955.5 382.8125 932.75T359.625 891.625T324.625 860.125T280 842.625V448H224V842.625Q199.5 847 178.9375 860.125T143.5 891.625T120.3125 932.75T112 980Q112 1008 122.5 1033.375T153.125 1078.875L252 1177.75L350.875 1078.875Q371 1058.75 381.0625 1033.375T391.125 980zM168 980Q168 953.75 183.3125 931.4375T224 901.25V1008H280V901.25Q305.375 909.125 320.6875 931.4375T336 980Q336 1015 311.5 1039.5L252 1099L192.5 1039.5Q168 1015 168 980zM336 803.25Q386.75 827.75 417.375 875.4375T448 980V560H336V803.25z" />
    <glyph glyph-name="BatterySaver10"
      unicode="&#xEA43;"
      horiz-adv-x="1792" d=" M1624 840V728H1568V448H336V504H1512V1064H427.875Q420.875 1080.625 411.25 1092.4375T390.25 1118.25L389.375 1120H1568V840H1624zM391.125 980Q391.125 955.5 382.8125 932.75T359.625 891.625T324.625 860.125T280 842.625V448H224V842.625Q199.5 847 178.9375 860.125T143.5 891.625T120.3125 932.75T112 980Q112 1008 122.5 1033.375T153.125 1078.875L252 1177.75L350.875 1078.875Q371 1058.75 381.0625 1033.375T391.125 980zM168 980Q168 953.75 183.3125 931.4375T224 901.25V1008H280V901.25Q305.375 909.125 320.6875 931.4375T336 980Q336 1015 311.5 1039.5L252 1099L192.5 1039.5Q168 1015 168 980zM336 803.25Q386.75 827.75 417.375 875.4375T448 980V1008H1456V560H336V803.25z" />
    <glyph glyph-name="BatterySaver2"
      unicode="&#xEA44;"
      horiz-adv-x="1792" d=" M1624 840V728H1568V448H336V504H1512V1064H427.875Q420.875 1080.625 411.25 1092.4375T390.25 1118.25L389.375 1120H1568V840H1624zM391.125 980Q391.125 955.5 382.8125 932.75T359.625 891.625T324.625 860.125T280 842.625V448H224V842.625Q199.5 847 178.9375 860.125T143.5 891.625T120.3125 932.75T112 980Q112 1008 122.5 1033.375T153.125 1078.875L252 1177.75L350.875 1078.875Q371 1058.75 381.0625 1033.375T391.125 980zM168 980Q168 953.75 183.3125 931.4375T224 901.25V1008H280V901.25Q305.375 909.125 320.6875 931.4375T336 980Q336 1015 311.5 1039.5L252 1099L192.5 1039.5Q168 1015 168 980zM336 803.25Q386.75 827.75 417.375 875.4375T448 980V1008H560V560H336V803.25z" />
    <glyph glyph-name="BatterySaver3"
      unicode="&#xEA45;"
      horiz-adv-x="1792" d=" M1624 840V728H1568V448H336V504H1512V1064H427.875Q420.875 1080.625 411.25 1092.4375T390.25 1118.25L389.375 1120H1568V840H1624zM391.125 980Q391.125 955.5 382.8125 932.75T359.625 891.625T324.625 860.125T280 842.625V448H224V842.625Q199.5 847 178.9375 860.125T143.5 891.625T120.3125 932.75T112 980Q112 1008 122.5 1033.375T153.125 1078.875L252 1177.75L350.875 1078.875Q371 1058.75 381.0625 1033.375T391.125 980zM168 980Q168 953.75 183.3125 931.4375T224 901.25V1008H280V901.25Q305.375 909.125 320.6875 931.4375T336 980Q336 1015 311.5 1039.5L252 1099L192.5 1039.5Q168 1015 168 980zM336 803.25Q386.75 827.75 417.375 875.4375T448 980V1008H672V560H336V803.25z" />
    <glyph glyph-name="BatterySaver4"
      unicode="&#xEA46;"
      horiz-adv-x="1792" d=" M1624 840V728H1568V448H336V504H1512V1064H427.875Q420.875 1080.625 411.25 1092.4375T390.25 1118.25L389.375 1120H1568V840H1624zM391.125 980Q391.125 955.5 382.8125 932.75T359.625 891.625T324.625 860.125T280 842.625V448H224V842.625Q199.5 847 178.9375 860.125T143.5 891.625T120.3125 932.75T112 980Q112 1008 122.5 1033.375T153.125 1078.875L252 1177.75L350.875 1078.875Q371 1058.75 381.0625 1033.375T391.125 980zM168 980Q168 953.75 183.3125 931.4375T224 901.25V1008H280V901.25Q305.375 909.125 320.6875 931.4375T336 980Q336 1015 311.5 1039.5L252 1099L192.5 1039.5Q168 1015 168 980zM336 803.25Q386.75 827.75 417.375 875.4375T448 980V1008H784V560H336V803.25z" />
    <glyph glyph-name="BatterySaver5"
      unicode="&#xEA47;"
      horiz-adv-x="1792" d=" M1624 840V728H1568V448H336V504H1512V1064H427.875Q420.875 1080.625 411.25 1092.4375T390.25 1118.25L389.375 1120H1568V840H1624zM391.125 980Q391.125 955.5 382.8125 932.75T359.625 891.625T324.625 860.125T280 842.625V448H224V842.625Q199.5 847 178.9375 860.125T143.5 891.625T120.3125 932.75T112 980Q112 1008 122.5 1033.375T153.125 1078.875L252 1177.75L350.875 1078.875Q371 1058.75 381.0625 1033.375T391.125 980zM168 980Q168 953.75 183.3125 931.4375T224 901.25V1008H280V901.25Q305.375 909.125 320.6875 931.4375T336 980Q336 1015 311.5 1039.5L252 1099L192.5 1039.5Q168 1015 168 980zM336 803.25Q386.75 827.75 417.375 875.4375T448 980V1008H896V560H336V803.25z" />
    <glyph glyph-name="BatterySaver6"
      unicode="&#xEA48;"
      horiz-adv-x="1792" d=" M1624 840V728H1568V448H336V504H1512V1064H427.875Q420.875 1080.625 411.25 1092.4375T390.25 1118.25L389.375 1120H1568V840H1624zM391.125 980Q391.125 955.5 382.8125 932.75T359.625 891.625T324.625 860.125T280 842.625V448H224V842.625Q199.5 847 178.9375 860.125T143.5 891.625T120.3125 932.75T112 980Q112 1008 122.5 1033.375T153.125 1078.875L252 1177.75L350.875 1078.875Q371 1058.75 381.0625 1033.375T391.125 980zM168 980Q168 953.75 183.3125 931.4375T224 901.25V1008H280V901.25Q305.375 909.125 320.6875 931.4375T336 980Q336 1015 311.5 1039.5L252 1099L192.5 1039.5Q168 1015 168 980zM336 803.25Q386.75 827.75 417.375 875.4375T448 980V1008H1008V560H336V803.25z" />
    <glyph glyph-name="BatterySaver7"
      unicode="&#xEA49;"
      horiz-adv-x="1792" d=" M1624 840V728H1568V448H336V504H1512V1064H427.875Q420.875 1080.625 411.25 1092.4375T390.25 1118.25L389.375 1120H1568V840H1624zM391.125 980Q391.125 955.5 382.8125 932.75T359.625 891.625T324.625 860.125T280 842.625V448H224V842.625Q199.5 847 178.9375 860.125T143.5 891.625T120.3125 932.75T112 980Q112 1008 122.5 1033.375T153.125 1078.875L252 1177.75L350.875 1078.875Q371 1058.75 381.0625 1033.375T391.125 980zM168 980Q168 953.75 183.3125 931.4375T224 901.25V1008H280V901.25Q305.375 909.125 320.6875 931.4375T336 980Q336 1015 311.5 1039.5L252 1099L192.5 1039.5Q168 1015 168 980zM336 803.25Q386.75 827.75 417.375 875.4375T448 980V1008H1120V560H336V803.25z" />
    <glyph glyph-name="BatterySaver8"
      unicode="&#xEA4A;"
      horiz-adv-x="1792" d=" M1624 840V728H1568V448H336V504H1512V1064H427.875Q420.875 1080.625 411.25 1092.4375T390.25 1118.25L389.375 1120H1568V840H1624zM391.125 980Q391.125 955.5 382.8125 932.75T359.625 891.625T324.625 860.125T280 842.625V448H224V842.625Q199.5 847 178.9375 860.125T143.5 891.625T120.3125 932.75T112 980Q112 1008 122.5 1033.375T153.125 1078.875L252 1177.75L350.875 1078.875Q371 1058.75 381.0625 1033.375T391.125 980zM168 980Q168 953.75 183.3125 931.4375T224 901.25V1008H280V901.25Q305.375 909.125 320.6875 931.4375T336 980Q336 1015 311.5 1039.5L252 1099L192.5 1039.5Q168 1015 168 980zM336 803.25Q386.75 827.75 417.375 875.4375T448 980V1008H1232V560H336V803.25z" />
    <glyph glyph-name="BatterySaver9"
      unicode="&#xEA4B;"
      horiz-adv-x="1792" d=" M1624 840V728H1568V448H336V504H1512V1064H427.875Q420.875 1080.625 411.25 1092.4375T390.25 1118.25L389.375 1120H1568V840H1624zM391.125 980Q391.125 955.5 382.8125 932.75T359.625 891.625T324.625 860.125T280 842.625V448H224V842.625Q199.5 847 178.9375 860.125T143.5 891.625T120.3125 932.75T112 980Q112 1008 122.5 1033.375T153.125 1078.875L252 1177.75L350.875 1078.875Q371 1058.75 381.0625 1033.375T391.125 980zM168 980Q168 953.75 183.3125 931.4375T224 901.25V1008H280V901.25Q305.375 909.125 320.6875 931.4375T336 980Q336 1015 311.5 1039.5L252 1099L192.5 1039.5Q168 1015 168 980zM336 803.25Q386.75 827.75 417.375 875.4375T448 980V1008H1344V560H336V803.25z" />
    <glyph glyph-name="BatteryUnknown"
      unicode="&#xEA4C;"
      horiz-adv-x="1792" d=" M1568 840H1624V728H1568V448H224V1120H1568V840zM1512 504V1064H280V504H1512zM713.125 560.875L672.875 601.125L856.625 784L672.875 966.875L713.125 1007.125L896 823.375L1078.875 1007.125L1119.125 966.875L935.375 784L1119.125 601.125L1078.875 560.875L896 744.625z" />
    <glyph glyph-name="Beta"
      unicode="&#xEA4D;"
      horiz-adv-x="1792" d=" M1043 1092.875Q1110.375 1069.25 1165.9375 1027.25T1260.875 930.125T1322.125 809.375T1344 672Q1344 579.25 1308.5625 497.875T1212.3125 355.6875T1070.125 259.4375T896 224Q836.5 224 780.0625 240.1875T672 286.125V0H448V1568Q448 1614.375 465.5 1655.0625T513.625 1726.375T584.9375 1774.5T672 1792Q764.75 1792 846.125 1756.5625T988.3125 1660.3125T1084.5625 1518.125T1120 1344Q1120 1276.625 1100.3125 1212.75T1043 1092.875zM896 1344Q896 1390.375 878.5 1431.0625T830.375 1502.375T759.0625 1550.5T672 1568V1120Q718.375 1120 759.0625 1137.5T830.375 1185.625T878.5 1256.9375T896 1344zM896 448Q942.375 448 983.0625 465.5T1054.375 513.625T1102.5 584.9375T1120 672T1102.5 759.0625T1054.375 830.375T983.0625 878.5T896 896H672V672Q672 625.625 689.5 584.9375T737.625 513.625T808.9375 465.5T896 448z" />
    <glyph glyph-name="BidiLtr"
      unicode="&#xEA4E;"
      horiz-adv-x="1792" d=" M112 1366.75L694.75 784L112 201.25V1366.75zM224 470.75L537.25 784L224 1097.25V470.75zM1568 1568V224H1680V112H1120V224H1232V896H1064Q982.625 896 911.3125 926.625T786.625 1010.625T702.625 1135.3125T672 1288T702.625 1440.6875T786.625 1565.375T911.3125 1649.375T1064 1680H1680V1568H1568zM1232 1008V1568H1064Q1006.25 1568 955.0625 1545.6875T865.8125 1485.3125T805.875 1396.5T784 1288T805.875 1179.0625T865.8125 1089.8125T955.0625 1029.875T1064 1008H1232zM1456 224V1568H1344V224H1456z" />
    <glyph glyph-name="BidiRtl"
      unicode="&#xEA4F;"
      horiz-adv-x="1792" d=" M1008 1680V1568H896V224H1008V112H448V224H560V896H392Q310.625 896 239.3125 926.625T114.625 1010.625T30.625 1135.3125T0 1288T30.625 1440.6875T114.625 1565.375T239.3125 1649.375T392 1680H1008zM560 1008V1568H392Q334.25 1568 283.0625 1545.6875T193.8125 1485.3125T133.875 1396.5T112 1288T133.875 1179.0625T193.8125 1089.8125T283.0625 1029.875T392 1008H560zM784 224V1568H672V224H784zM1680 1366.75V201.25L1097.25 784zM1568 1097.25L1254.75 784L1568 470.75V1097.25z" />
    <glyph glyph-name="BlockContact"
      unicode="&#xEA50;"
      horiz-adv-x="1792" d=" M1138.375 820.75Q1114.75 805.875 1092.4375 789.6875T1050 753.375Q972.125 823.375 874.5625 859.6875T672 896Q554.75 896 452.375 852.6875T274.3125 733.6875T155.3125 555.625T112 336H0Q0 441 30.625 539T118.125 719.6875T255.0625 865.375T434.875 965.125Q386.75 995.75 347.8125 1037.3125T281.3125 1127.875T238.875 1231.5625T224 1344Q224 1436.75 259.4375 1518.125T355.6875 1660.3125T497.875 1756.5625T672 1792T846.125 1756.5625T988.3125 1660.3125T1084.5625 1518.125T1120 1344Q1120 1286.25 1105.125 1231.5625T1062.6875 1127.875T996.1875 1037.3125T909.125 965.125Q973.875 942.375 1031.1875 905.1875T1138.375 820.75zM336 1344Q336 1274.875 362.6875 1213.625T434.875 1106.875T541.625 1034.6875T672 1008T802.375 1034.6875T909.125 1106.875T981.3125 1213.625T1008 1344T981.3125 1474.375T909.125 1581.125T802.375 1653.3125T672 1680T541.625 1653.3125T434.875 1581.125T362.6875 1474.375T336 1344zM1400 784Q1481.375 784 1552.6875 752.9375T1676.9375 668.9375T1760.9375 544.6875T1792 392T1760.9375 239.3125T1676.9375 115.0625T1552.6875 31.0625T1400 0T1247.3125 31.0625T1123.0625 115.0625T1039.0625 239.3125T1008 392T1039.0625 544.6875T1123.0625 668.9375T1247.3125 752.9375T1400 784zM1400 112Q1441.125 112 1480.5 123.8125T1554 158.375L1166.375 546Q1143.625 511.875 1131.8125 472.5T1120 392Q1120 334.25 1142.3125 283.5T1202.6875 194.6875T1291.5 134.3125T1400 112zM1633.625 238Q1656.375 272.125 1668.1875 311.5T1680 392Q1680 449.75 1657.6875 500.5T1597.3125 589.3125T1508.5 649.6875T1400 672Q1358.875 672 1319.5 660.1875T1246 625.625z" />
    <glyph glyph-name="BlockedLegacy"
      unicode="&#xEA51;"
      horiz-adv-x="1792" d=" M896 1792Q1019.375 1792 1133.5625 1760.0625T1347.5 1669.5T1529.0625 1529.0625T1669.5 1347.5T1760.0625 1133.5625T1792 896T1760.0625 658.4375T1669.5 444.5T1529.0625 262.9375T1347.5 122.5T1133.5625 31.9375T896 0T658.4375 31.9375T444.5 122.5T262.9375 262.9375T122.5 444.5T31.9375 658.4375T0 896T31.9375 1133.5625T122.5 1347.5T262.9375 1529.0625T444.5 1669.5T658.4375 1760.0625T896 1792zM896 112Q1039.5 112 1170.3125 161T1409.625 303.625L303.625 1409.625Q210 1301.125 161 1170.3125T112 896Q112 787.5 140 687.3125T219.1875 500.0625T341.6875 341.6875T500.0625 219.1875T687.3125 140T896 112zM1488.375 382.375Q1582 490.875 1631 621.6875T1680 896Q1680 1004.5 1652 1104.6875T1572.8125 1291.9375T1450.3125 1450.3125T1291.9375 1572.8125T1104.6875 1652T896 1680Q752.5 1680 621.6875 1631T382.375 1488.375z" />
    <glyph glyph-name="Bluetooth"
      unicode="&#xEA52;"
      horiz-adv-x="1792" d=" M896 32.375V704.375L599.375 408.625L520.625 487.375L872.375 840L520.625 1192.625L599.375 1271.375L896 975.625V1647.625L1366.75 1176L1030.75 840L1366.75 504L896 32.375zM1008 704.375V303.625L1208.375 504L1008 704.375zM1008 1376.375V975.625L1208.375 1176L1008 1376.375z" />
    <glyph glyph-name="BodyCam"
      unicode="&#xEA53;"
      horiz-adv-x="1792" d=" M665.875 1344Q759.5 1344 842.1875 1310.75T986.5625 1218.4375T1084.125 1078.4375T1120 902.125Q1120 808.5 1086.75 725.8125T994.4375 581.4375T854.4375 483.875T678.125 448Q584.5 448 501.8125 481.25T357.4375 573.5625T259.875 713.5625T224 889.875Q224 983.5 257.25 1066.1875T349.5625 1210.5625T489.5625 1308.125T665.875 1344zM1008 889.875Q1008 960.75 983.5 1022.875T915.25 1131.375T810.6875 1204.875T678.125 1232Q607.25 1232 545.125 1207.5T436.625 1139.25T363.125 1034.6875T336 902.125Q336 831.25 360.5 769.125T428.75 660.625T532.875 587.125T665.875 560Q736.75 560 798.875 584.5T907.375 652.75T980.875 756.875T1008 889.875zM1512 1344Q1534.75 1344 1551.375 1327.375T1568 1288T1551.375 1248.625T1512 1232T1472.625 1248.625T1456 1288T1472.625 1327.375T1512 1344zM1568 1568Q1614.375 1568 1655.0625 1550.5T1726.375 1502.375T1774.5 1431.0625T1792 1344V448Q1792 401.625 1774.5 360.9375T1726.375 289.625T1655.0625 241.5T1568 224H224Q177.625 224 136.9375 241.5T65.625 289.625T17.5 360.9375T0 448V1344Q0 1390.375 17.5 1431.0625T65.625 1502.375T136.9375 1550.5T224 1568H1568zM1680 1344Q1680 1367.625 1671.25 1387.75T1647.1875 1423.1875T1611.75 1447.25T1568 1456H224Q200.375 1456 180.25 1447.25T144.8125 1423.1875T120.75 1387.75T112 1344V448Q112 424.375 120.75 404.25T144.8125 368.8125T180.25 344.75T224 336H1568Q1591.625 336 1611.75 344.75T1647.1875 368.8125T1671.25 404.25T1680 448V1344z" />
    <glyph glyph-name="Bold"
      unicode="&#xEA54;"
      horiz-adv-x="1792" d=" M1036 952Q1122.625 952 1199.1875 919.1875T1333.0625 829.0625T1423.1875 695.1875T1456 532T1423.1875 368.8125T1333.0625 234.9375T1199.1875 144.8125T1036 112H336V1680H1036Q1111.25 1680 1177.75 1651.5625T1293.6875 1573.6875T1371.5625 1457.75T1400 1316T1371.5625 1174.25T1293.6875 1058.3125T1177.75 980.4375T1036 952zM672 1008H840Q885.5 1008 926.625 1025.9375T997.9375 1074.0625T1046.0625 1144.9375T1064 1232Q1064 1277.5 1046.0625 1318.625T997.9375 1389.9375T926.625 1438.0625T840 1456H672V1008zM896 336Q941.5 336 982.625 353.9375T1053.9375 402.0625T1102.0625 472.9375T1120 560Q1120 605.5 1102.0625 646.625T1053.9375 717.9375T982.625 766.0625T896 784H672V336H896z" />
    <glyph glyph-name="BoldFLegacy"
      unicode="&#xEA55;"
      horiz-adv-x="1792" d=" M1200.5 1239.875H828.625V952.875H1170.75V782.25H828.625V380.625H599.375V1411.375H1200.5V1239.875z" />
    <glyph glyph-name="BoldGLegacy"
      unicode="&#xEA56;"
      horiz-adv-x="1792" d=" M1299.375 464.625Q1226.75 423.5 1135.75 402.5T935.375 381.5Q693 381.5 553 513.625Q413 648.375 413 880.25Q413 1114.75 566.125 1263.5Q718.375 1410.5 971.25 1410.5Q1052.625 1410.5 1122.1875 1400T1253.875 1367.625V1156.75Q1135.75 1224.125 968.625 1224.125Q828.625 1224.125 739.375 1132.25Q694.75 1086.75 668.5 1026.8125T642.25 891.625Q642.25 813.75 666.3125 755.125T730.625 653.625Q811.125 569.625 945.875 569.625Q1024.625 569.625 1073.625 592.375V782.25H873.25V952.875H1299.375V464.625z" />
    <glyph glyph-name="BoldKoreanLegacy"
      unicode="&#xEA57;"
      horiz-adv-x="1792" d=" M327.25 1410.5H957.25Q957.25 1284.5 943.25 1178.625T899.9375 982.1875T827.3125 815.5T724.0625 673.3125T588.875 549.9375T420 438.375Q389.375 477.75 350 519.3125T270.375 593.25Q340.375 612.5 402.5 648.375T517.125 732.375T611.625 839.125T682.9375 963.375T727.5625 1098.5625T742.875 1239.875H327.25V1410.5zM1471.75 1525.125L1358 1414.875V952.875H1527.75V782.25H1358V266.875H1185.625V1525.125H1471.75z" />
    <glyph glyph-name="BoldNLegacy"
      unicode="&#xEA58;"
      horiz-adv-x="1792" d=" M1355.375 379.75H1120.875L707 1027.25Q697.375 1041.25 691.6875 1050.875T681.625 1067.0625T674.625 1079.3125T668.5 1092V379.75H439.25V1410.5H688.625Q806.75 1221.5 901.25 1070.125Q941.5 1005.375 980.4375 942.8125T1050.875 829.5T1102.9375 745.9375T1126.125 707.875V1410.5H1355.375V379.75z" />
    <glyph glyph-name="BoldRussionLegacy"
      unicode="&#xEA59;"
      horiz-adv-x="1792" d=" M1599.5 381.5H1327.375L1040.375 800.625Q1034.25 808.5 1027.6875 820.75T1014.125 849.625H1010.625V381.5H783.125V849.625H780.5Q777 841.75 770.4375 829.0625T755.125 802.375L718.375 749.875Q705.25 729.75 684.25 699.125T632.625 623.875T560.875 519.75T466.375 381.5H193.375L565.25 889L221.375 1353.625H483L753.375 945.875Q762.125 933.625 768.6875 922.6875T780.5 901.25H783.125V1353.625H1010.625V901.25H1014.125Q1018.5 911.75 1025.0625 922.6875T1040.375 945.875L1310.75 1353.625H1572.375L1228.5 889z" />
    <glyph glyph-name="Bookmarks"
      unicode="&#xEA5A;"
      horiz-adv-x="1792" d=" M0 1344V1456H112V1344H0zM336 1456H1792V1344H336V1456zM0 336V448H112V336H0zM336 336V448H1792V336H336zM784 1008V1120H1792V1008H784zM1232 672V784H1792V672H1232z" />
    <glyph glyph-name="BookmarksMirrored"
      unicode="&#xEA5B;"
      horiz-adv-x="1792" d=" M1792 1344V1456H1680.007V1344H1792zM1456.0175 1456H0.1049999999998V1344H1456.0175V1456zM1792 336V448H1680.007V336H1792zM1456.0175 336V448H0.1049999999998V336H1456.0175zM1008.04375 1008V1120H0.1049999999999V1008H1008.04375zM560.0752499999999 672V784H0.1084999999998V672H560.0752499999999z" />
    <glyph glyph-name="Brightness"
      unicode="&#xEA5C;"
      horiz-adv-x="1792" d=" M840 1344Q921.375 1344 992.6875 1313.375T1117.375 1229.375T1201.375 1104.6875T1232 952T1201.375 799.3125T1117.375 674.625T992.6875 590.625T840 560T687.3125 590.625T562.625 674.625T478.625 799.3125T448 952T478.625 1104.6875T562.625 1229.375T687.3125 1313.375T840 1344zM840 672Q897.75 672 948.5 693.875T1037.3125 753.8125T1097.6875 843.0625T1120 952T1097.6875 1060.5T1037.3125 1149.3125T948.5 1209.6875T840 1232T731.0625 1209.6875T641.8125 1149.3125T581.875 1060.5T560 952T581.875 843.0625T641.8125 753.8125T731.0625 693.875T840 672zM896 1456H784V1792H896V1456zM784 448H896V112H784V448zM1680 1008V896H1344V1008H1680zM336 896H0V1008H336V896zM443.625 1268.75L206.5 1506.75L285.25 1585.5L523.25 1348.375zM1236.375 635.25L1473.5 397.25L1394.75 318.5L1156.75 555.625zM1236.375 1268.75L1156.75 1348.375L1394.75 1585.5L1473.5 1506.75zM443.625 635.25L523.25 555.625L285.25 318.5L206.5 397.25z" />
    <glyph glyph-name="Broom"
      unicode="&#xEA5D;"
      horiz-adv-x="1792" d=" M1736 1792Q1758.75 1792 1775.375 1775.375T1792 1736T1775.375 1696.625L1136.625 1057.875Q1183.875 997.5 1207.9375 926.625T1232 779.625Q1232 689.5 1197.875 606.8125T1099.875 460.25L1040.375 400.75L841.75 3.5L3.5 841.75L400.75 1040.375L460.25 1099.875Q524.125 1163.75 606.8125 1197.875T779.625 1232Q855.75 1232 926.625 1207.9375T1057.875 1136.625L1696.625 1775.375Q1713.25 1792 1736 1792zM935.375 441.875L441.875 935.375L192.5 811.125L811.125 192.5zM1008 527.625Q1061.375 580.125 1090.6875 641.8125T1120 779.625Q1120 850.5 1093.3125 912.1875T1020.25 1020.25T912.1875 1093.3125T779.625 1120Q703.5 1120 641.8125 1091.125T527.625 1008z" />
    <glyph glyph-name="BrowsePhotos"
      unicode="&#xEA5E;"
      horiz-adv-x="1792" d=" M224 560V784H0V1792H1344V1568H1568V896H1456V1456H1344V784H336V672H1120V560H224zM1232 896V1680H112V896H1232zM224 1568H1120V1008H224V1568zM336 1120H1008V1456H336V1120zM1512 784Q1569.75 784 1620.5 761.6875T1709.3125 701.3125T1769.6875 612.5T1792 504T1769.6875 395.5T1709.3125 306.6875T1620.5 246.3125T1512 224Q1470.875 224 1431.5 235.8125T1358 270.375L1092 5.25L1013.25 84L1278.375 350Q1255.625 384.125 1243.8125 423.5T1232 504Q1232 561.75 1254.3125 612.5T1314.6875 701.3125T1403.5 761.6875T1512 784zM1512 336Q1547 336 1577.625 349.125T1631 385T1666.875 438.375T1680 504T1666.875 569.625T1631 623T1577.625 658.875T1512 672T1446.375 658.875T1393 623T1357.125 569.625T1344 504T1357.125 438.375T1393 385T1446.375 349.125T1512 336z" />
    <glyph glyph-name="BrushSize"
      unicode="&#xEA5F;"
      horiz-adv-x="1792" d=" M1792 1232Q1556.625 1232 1331.3125 1275.3125T885.5 1401.75Q670.25 1484 450.625 1526T0 1568V1624Q235.375 1624 460.6875 1580.6875T906.5 1454.25Q1121.75 1372 1341.375 1330T1792 1288V1232zM0 1344Q239.75 1344 465.9375 1300.6875T916.125 1172.5Q1129.625 1092 1346.625 1050T1792 1008V896Q1552.25 896 1326.0625 939.3125T875.875 1067.5Q662.375 1148 445.375 1190T0 1232V1344zM1792 504Q1550.5 504 1320.375 548.1875T865.375 678.125Q655.375 757.75 440.125 798.875T0 840V1008Q241.5 1008 471.625 963.375T926.625 833.875Q1136.625 753.375 1351.875 712.6875T1792 672V504zM0 672Q244.125 672 476.875 626.9375T937.125 496.125Q1144.5 417.375 1357.125 376.6875T1792 336V112Q1547.875 112 1315.125 157.0625T854.875 287.875Q647.5 366.625 434.875 407.3125T0 448V672z" />
    <glyph glyph-name="BuildingEnergy"
      unicode="&#xEA60;"
      horiz-adv-x="1792" d=" M896 1008V224H448V1008H896zM336 1792H1568V0H1456V1680H448V1232H560V1344H784V1232H1120V0H224V1232H336V1792zM1008 1120H336V112H1008V1120zM672 1456H560V1568H672V1456zM896 1456H784V1568H896V1456zM1008 1456V1568H1120V1456H1008zM1232 1456V1568H1344V1456H1232zM1232 1232V1344H1344V1232H1232zM1232 1008V1120H1344V1008H1232zM1232 784V896H1344V784H1232zM1232 560V672H1344V560H1232zM1232 336V448H1344V336H1232zM1232 112V224H1344V112H1232z" />
    <glyph glyph-name="BulletedList"
      unicode="&#xEA61;"
      horiz-adv-x="1792" d=" M0 672V784H112V672H0zM0 1008V1120H112V1008H0zM336 1008V1120H1792V1008H336zM0 1344V1456H112V1344H0zM336 1456H1792V1344H336V1456zM336 672V784H1792V672H336zM0 336V448H112V336H0zM336 336V448H1792V336H336z" />
    <glyph glyph-name="BulletedListMirrored"
      unicode="&#xEA62;"
      horiz-adv-x="1792" d=" M1792 672V784H1680.007V672H1792zM1792 1008V1120H1680.007V1008H1792zM1456.0175 1008V1120H0.1049999999998V1008H1456.0175zM1792 1344V1456H1680.007V1344H1792zM1456.0175 1456H0.1049999999998V1344H1456.0175V1456zM1456.0175 672V784H0.1049999999998V672H1456.0175zM1792 336V448H1680.007V336H1792zM1456.0175 336V448H0.1049999999998V336H1456.0175z" />
    <glyph glyph-name="Bus"
      unicode="&#xEA63;"
      horiz-adv-x="1792" d=" M1680 1232V1008H1568V168Q1568 138.25 1564.9375 108.0625T1550.9375 53.8125T1517.6875 14.875T1456 0Q1434.125 0 1409.1875 -0.875T1359.3125 0T1311.1875 7.4375T1270.5 25.375T1242.5 58.625T1232 112H448Q448 88.375 439.25 68.25T415.1875 32.8125T379.75 8.75T336 0Q275.625 0 232.75 0.875T163.1875 16.1875T124.25 65.1875T112 168V1008H0V1232H112V1512Q112 1547 125.125 1577.625T161 1631T214.375 1666.875T280 1680H1400Q1435 1680 1465.625 1666.875T1519 1631T1554.875 1577.625T1568 1512V1232H1680zM1456 672H224V448H336Q336 463.75 335.5625 483.4375T339.5 520.1875T355.6875 548.625T392 560T428.3125 548.625T444.5 520.1875T448.4375 483.4375T448 448H1232Q1232 463.75 1231.5625 483.4375T1235.5 520.1875T1251.6875 548.625T1288 560T1324.3125 548.625T1340.5 520.1875T1344.4375 483.4375T1344 448H1456V672zM784 784V1232H224V784H784zM1456 1232H896V784H1456V1232zM280 1568Q257.25 1568 240.625 1551.375T224 1512V1344H1456V1512Q1456 1534.75 1439.375 1551.375T1400 1568H280zM1456 224V336H224V224H1456z" />
    <glyph glyph-name="BusSolid"
      unicode="&#xEA64;"
      horiz-adv-x="1792" d=" M1680 1232V1008H1568V112Q1568 88.375 1559.25 68.25T1535.1875 32.8125T1499.75 8.75T1456 0H1344Q1320.375 0 1300.25 8.75T1264.8125 32.8125T1240.75 68.25T1232 112H448Q448 88.375 439.25 68.25T415.1875 32.8125T379.75 8.75T336 0H224Q200.375 0 180.25 8.75T144.8125 32.8125T120.75 68.25T112 112V1008H0V1232H112V1512Q112 1547 125.125 1577.625T161 1631T214.375 1666.875T280 1680H1400Q1435 1680 1465.625 1666.875T1519 1631T1554.875 1577.625T1568 1512V1232H1680zM224 784H784V1232H224V784zM448 504Q448 526.75 431.375 543.375T392 560T352.625 543.375T336 504V448H448V504zM1456 336H224V224H1456V336zM1344 448V504Q1344 526.75 1327.375 543.375T1288 560T1248.625 543.375T1232 504V448H1344zM1456 1232H896V784H1456V1232z" />
    <glyph glyph-name="CC"
      unicode="&#xEA65;"
      horiz-adv-x="1792" d=" M616 1232Q558.25 1232 507.5 1209.6875T418.6875 1149.3125T358.3125 1060.5T336 952T358.3125 843.5T418.6875 754.6875T507.5 694.3125T616 672Q672 672 723.1875 693.4375T813.75 754.25L893.375 674.625Q838.25 619.5 766.0625 589.75T616 560Q534.625 560 463.3125 591.0625T339.0625 675.0625T255.0625 799.3125T224 952T255.0625 1104.6875T339.0625 1228.9375T463.3125 1312.9375T616 1344Q693.875 1344 766.0625 1314.25T893.375 1229.375L813.75 1149.75Q774.375 1189.125 723.1875 1210.5625T616 1232zM1288 1232Q1230.25 1232 1179.5 1209.6875T1090.6875 1149.3125T1030.3125 1060.5T1008 952T1030.3125 843.5T1090.6875 754.6875T1179.5 694.3125T1288 672Q1344 672 1395.1875 693.4375T1485.75 754.25L1565.375 674.625Q1510.25 619.5 1438.0625 589.75T1288 560Q1206.625 560 1135.3125 591.0625T1011.0625 675.0625T927.0625 799.3125T896 952T927.0625 1104.6875T1011.0625 1228.9375T1135.3125 1312.9375T1288 1344Q1365.875 1344 1438.0625 1314.25T1565.375 1229.375L1485.75 1149.75Q1446.375 1189.125 1395.1875 1210.5625T1288 1232zM0 1568H1792V336H0V1568zM112 448H1680V1456H112V448z" />
    <glyph glyph-name="CCEuroLegacy"
      unicode="&#xEA66;"
      horiz-adv-x="1792" d=" M1624 1456Q1659 1456 1689.625 1442.875T1743 1407T1778.875 1353.625T1792 1288V504Q1792 469 1778.875 438.375T1743 385T1689.625 349.125T1624 336H168Q133 336 102.375 349.125T49 385T13.125 438.375T0 504V1288Q0 1323 13.125 1353.625T49 1407T102.375 1442.875T168 1456H1624zM1680 1288Q1680 1310.75 1663.375 1327.375T1624 1344H168Q145.25 1344 128.625 1327.375T112 1288V504Q112 481.25 128.625 464.625T168 448H1624Q1646.75 448 1663.375 464.625T1680 504V1288zM392 784Q414.75 784 431.375 767.375T448 728T431.375 688.625T392 672T352.625 688.625T336 728T352.625 767.375T392 784zM728 784Q750.75 784 767.375 767.375T784 728T767.375 688.625T728 672T688.625 688.625T672 728T688.625 767.375T728 784zM1064 784Q1086.75 784 1103.375 767.375T1120 728T1103.375 688.625T1064 672T1024.625 688.625T1008 728T1024.625 767.375T1064 784zM1400 784Q1422.75 784 1439.375 767.375T1456 728T1439.375 688.625T1400 672T1360.625 688.625T1344 728T1360.625 767.375T1400 784z" />
    <glyph glyph-name="CCJapanLegacy"
      unicode="&#xEA67;"
      horiz-adv-x="1792" d=" M1702.75 711.375Q1717.625 711.375 1717.625 695.625V630Q1717.625 616.875 1702.75 616.875Q1634.5 617.75 1567.5625 619.0625T1432.375 620.375H903.875V460.25Q903.875 381.5 904.3125 303.625T905.625 147Q905.625 117.25 898.1875 86.625T867.125 35.875Q852.25 23.625 826.4375 16.1875T772.1875 5.25T716.625 0.875T671.125 0H602.875L567.875 2.625L553 11.375L546.4375 29.3125L536.375 59.9375L510.125 106.75Q562.625 100.625 614.25 97.5625T718.375 94.5Q742 94.5 759.0625 97.5625T787.5 109.375T804.125 133.875T809.375 175V620.375H285.25Q217 620.375 149.625 619.0625T14 616.875Q0 616.875 0 630V695.625Q0 711.375 14 711.375Q82.25 709.625 149.625 708.3125T285.25 707H809.375Q809.375 758.625 808.0625 812.875T795.375 917.875Q819.875 913.5 843.9375 907.8125T891.625 895.125Q981.75 947.625 1066.1875 1008.4375T1225.875 1141.875H596.75Q529.375 1141.875 462.4375 1140.5625T328.125 1138.375Q313.25 1138.375 313.25 1151.5V1215.375Q313.25 1229.375 328.125 1229.375Q395.5 1227.625 462.4375 1226.3125T596.75 1225H1216.25Q1230.25 1225 1244.6875 1225.875T1272.25 1232.875Q1277.5 1234.625 1282.3125 1236.8125T1293.25 1239Q1301.125 1239 1316 1227.625T1345.3125 1200.9375T1370.6875 1169.875T1381.625 1146.25Q1381.625 1134.875 1375.0625 1129.1875T1358.875 1119.125Q1338.75 1110.375 1319.9375 1097.6875T1283.625 1071Q1193.5 1000.125 1099.875 937.5625T905.625 817.25Q903.875 799.75 903.875 781.375V707H1432.375Q1500.625 707 1567.5625 708.3125T1702.75 711.375zM42.875 1152.375Q43.75 1206.625 45.0625 1260T46.375 1367.625Q46.375 1410.5 45.5 1453.375T42.875 1539.125Q42.875 1553.125 56 1553.125Q127.75 1551.375 199.0625 1550.0625T342.125 1548.75H784V1670.8125L770.875 1792Q797.125 1790.25 824.6875 1788.0625T878.5 1781.5Q885.5 1779.75 892.9375 1776.6875T900.375 1764.875Q900.375 1759.625 895.125 1746.9375T888.125 1729Q883.75 1719.375 882 1698.8125T879.375 1655.0625T878.5 1610.875V1548.75H1353.625Q1424.5 1548.75 1495.375 1550.0625T1637.125 1553.125Q1651.125 1553.125 1651.125 1539.125Q1649.375 1515.5 1648.0625 1491T1646.75 1442.875V1367.625Q1646.75 1313.375 1648.0625 1260T1651.125 1152.375Q1651.125 1138.375 1637.125 1138.375H1568Q1554 1138.375 1554 1152.375V1465.625H139.125V1152.375Q139.125 1138.375 125.125 1138.375H56Q42.875 1138.375 42.875 1152.375z" />
    <glyph glyph-name="Calculator"
      unicode="&#xEA68;"
      horiz-adv-x="1792" d=" M224 1792H1456V0H224V1792zM1344 112V1680H336V112H1344zM1232 1568V1232H448V1568H1232zM1120 1344V1456H560V1344H1120zM560 1008V896H448V1008H560zM784 896V1008H896V896H784zM1120 896V1008H1232V896H1120zM560 672V560H448V672H560zM784 560V672H896V560H784zM1120 560V672H1232V560H1120zM560 336V224H448V336H560zM784 224V336H896V224H784zM1120 224V336H1232V224H1120z" />
    <glyph glyph-name="CalculatorAddition"
      unicode="&#xEA69;"
      horiz-adv-x="1792" d=" M1680 1008V896H896V112H784V896H0V1008H784V1792H896V1008H1680z" />
    <glyph glyph-name="CalculatorBackspace"
      unicode="&#xEA6A;"
      horiz-adv-x="1792" d=" M879.375 576.625L800.625 655.375L1040.375 896L800.625 1136.625L879.375 1215.375L1120 975.625L1360.625 1215.375L1439.375 1136.625L1199.625 896L1439.375 655.375L1360.625 576.625L1120 816.375zM672 1568H1792V224H672L0 896zM1680 336V1456H718.375L158.375 896L718.375 336H1680z" />
    <glyph glyph-name="CalculatorDivide"
      unicode="&#xEA6B;"
      horiz-adv-x="1792" d=" M952 336Q952 312.375 943.25 292.25T919.1875 256.8125T883.75 232.75T840 224T796.25 232.75T760.8125 256.8125T736.75 292.25T728 336T736.75 379.75T760.8125 415.1875T796.25 439.25T840 448T883.75 439.25T919.1875 415.1875T943.25 379.75T952 336zM952 1568Q952 1544.375 943.25 1524.25T919.1875 1488.8125T883.75 1464.75T840 1456T796.25 1464.75T760.8125 1488.8125T736.75 1524.25T728 1568T736.75 1611.75T760.8125 1647.1875T796.25 1671.25T840 1680T883.75 1671.25T919.1875 1647.1875T943.25 1611.75T952 1568zM1680 896H0V1008H1680V896z" />
    <glyph glyph-name="CalculatorEqualTo"
      unicode="&#xEA6C;"
      horiz-adv-x="1792" d=" M0 560V672H1680V560H0zM0 1344H1680V1232H0V1344z" />
    <glyph glyph-name="CalculatorMultiply"
      unicode="&#xEA6D;"
      horiz-adv-x="1792" d=" M1579.375 1612.625L918.75 952L1579.375 291.375L1500.625 212.625L840 873.25L179.375 212.625L100.625 291.375L761.25 952L100.625 1612.625L179.375 1691.375L840 1030.75L1500.625 1691.375L1579.375 1612.625z" />
    <glyph glyph-name="CalculatorNegate"
      unicode="&#xEA6E;"
      horiz-adv-x="1792" d=" M896 1120H1456V1008H896V448H784V1008H224V1120H784V1680H896V1120zM224 224V336H1456V224H224z" />
    <glyph glyph-name="CalculatorPercentage"
      unicode="&#xEA6F;"
      horiz-adv-x="1792" d=" M672 1456Q672 1386 645.75 1325.1875T573.5625 1218.4375T466.375 1146.25T336 1120Q266 1120 205.1875 1146.25T98.4375 1218.4375T26.25 1325.1875T0 1456Q0 1525.125 26.25 1586.375T98.4375 1693.5625T205.1875 1765.75T336 1792Q405.125 1792 466.375 1765.75T573.5625 1693.5625T645.75 1586.375T672 1456zM336 1232Q382.375 1232 423.0625 1249.5T494.375 1297.625T542.5 1368.9375T560 1456T542.5 1543.0625T494.375 1614.375T423.0625 1662.5T336 1680T248.9375 1662.5T177.625 1614.375T129.5 1543.0625T112 1456T129.5 1368.9375T177.625 1297.625T248.9375 1249.5T336 1232zM1344 784Q1413.125 784 1474.375 757.75T1581.5625 685.5625T1653.75 578.375T1680 448Q1680 378 1653.75 317.1875T1581.5625 210.4375T1474.375 138.25T1344 112Q1274 112 1213.1875 138.25T1106.4375 210.4375T1034.25 317.1875T1008 448Q1008 517.125 1034.25 578.375T1106.4375 685.5625T1213.1875 757.75T1344 784zM1344 224Q1390.375 224 1431.0625 241.5T1502.375 289.625T1550.5 360.9375T1568 448T1550.5 535.0625T1502.375 606.375T1431.0625 654.5T1344 672T1256.9375 654.5T1185.625 606.375T1137.5 535.0625T1120 448T1137.5 360.9375T1185.625 289.625T1256.9375 241.5T1344 224zM1323 1792L483 112H357L1197 1792H1323z" />
    <glyph glyph-name="CalculatorSquareroot"
      unicode="&#xEA70;"
      horiz-adv-x="1792" d=" M1290.625 1792H1396.5L503.125 0L133 786.625H0V897.75H202.125L503.125 227.5L1290.625 1792z" />
    <glyph glyph-name="CalculatorSubtract"
      unicode="&#xEA71;"
      horiz-adv-x="1792" d=" M0 1008H1680V896H0V1008z" />
    <glyph glyph-name="Calendar"
      unicode="&#xEA72;"
      horiz-adv-x="1792" d=" M672 1008V1120H784V1008H672zM1008 336V448H1120V336H1008zM1344 1008V1120H1456V1008H1344zM1008 1008V1120H1120V1008H1008zM672 784V896H784V784H672zM336 784V896H448V784H336zM1344 784V896H1456V784H1344zM1008 784V896H1120V784H1008zM672 560V672H784V560H672zM336 560V672H448V560H336zM1344 560V672H1456V560H1344zM1008 560V672H1120V560H1008zM672 336V448H784V336H672zM336 336V448H448V336H336zM1456 1680H1792V112H0V1680H336V1792H448V1680H1344V1792H1456V1680zM336 1568H112V1344H1680V1568H1456V1456H1344V1568H448V1456H336V1568zM112 224H1680V1232H112V224z" />
    <glyph glyph-name="CalendarDay"
      unicode="&#xEA73;"
      horiz-adv-x="1792" d=" M1456 1680H1792V112H0V1680H336V1792H448V1680H1344V1792H1456V1680zM336 1568H112V1344H1680V1568H1456V1456H1344V1568H448V1456H336V1568zM112 224H1680V1232H112V224zM336 336V1120H784V336H336zM448 1008V448H672V1008H448zM1008 336V1120H1456V336H1008zM1120 1008V448H1344V1008H1120z" />
    <glyph glyph-name="CalendarMirrored"
      unicode="&#xEA74;"
      horiz-adv-x="1792" d=" M1120.04375 1008V1120H1008.05075V1008H1120.04375zM784.06125 336V448H672.0682499999999V336H784.06125zM448.08225 1008V1120H336.08925V1008H448.08225zM784.06125 1008V1120H672.0682499999999V1008H784.06125zM1120.04375 784V896H1008.05075V784H1120.04375zM1456.0175 784V896H1344.0245V784H1456.0175zM448.08225 784V896H336.08925V784H448.08225zM784.06125 784V896H672.0682499999999V784H784.06125zM1120.04375 560V672H1008.05075V560H1120.04375zM1456.0175 560V672H1344.0245V560H1456.0175zM448.08225 560V672H336.08925V560H448.08225zM784.06125 560V672H672.0682499999999V560H784.06125zM1120.04375 336V448H1008.05075V336H1120.04375zM1456.0175 336V448H1344.0245V336H1456.0175zM336.08925 1680H0.11025V112H1792.00525V1680H1456.02625V1792H1344.03325V1680H448.08575V1792H336.09275V1680zM1456.0175 1568H1680.0035V1344H112.0997499999999V1568H336.0857499999999V1456H448.0787499999999V1568H1344.02625V1456H1456.0192499999998V1568zM1680.00875 224H112.1049999999998V1232H1680.00875V224z" />
    <glyph glyph-name="CalendarReply"
      unicode="&#xEA75;"
      horiz-adv-x="1792" d=" M784 1008H672V1120H784V1008zM1120 1008H1008V1120H1120V1008zM784 784H672V896H784V784zM448 784H336V896H448V784zM1008 896H1120V784H1008V896zM1456 1008H1344V1120H1456V1008zM1344 896H1456V784H1344V896zM1008 672H1120V560H1008V672zM784 560H672V672H784V560zM448 560H336V672H448V560zM672 448H784V336H672V448zM336 448H448V336H336V448zM1792 1680V472.5Q1767.5 495.25 1739.0625 511.4375T1680 539V1232H112V224H1092L1204 112H0V1680H336V1792H448V1680H1344V1792H1456V1680H1792zM1680 1344V1568H1456V1456H1344V1568H448V1456H336V1568H112V1344H1680zM1311.625 448Q1355.375 448 1408.3125 450.1875T1514.625 449.75T1617.875 437.0625T1706.6875 402.0625T1768.8125 334.25T1792 224Q1792 177.625 1774.0625 136.9375T1725.9375 66.0625T1654.625 17.9375T1568 0V112Q1591.625 112 1611.75 120.75T1647.1875 144.8125T1671.25 180.25T1680 224T1671.25 267.75T1647.1875 303.1875T1611.75 327.25T1568 336H1311.625L1453.375 193.375L1374.625 114.625L1097.25 392L1374.625 669.375L1453.375 590.625z" />
    <glyph glyph-name="CalendarSolid"
      unicode="&#xEA76;"
      horiz-adv-x="1792" d=" M0 112V1344H1792V112H0zM1344 1120V1008H1456V1120H1344zM1344 896V784H1456V896H1344zM1344 672V560H1456V672H1344zM1008 1120V1008H1120V1120H1008zM1008 896V784H1120V896H1008zM1008 672V560H1120V672H1008zM1008 448V336H1120V448H1008zM672 1120V1008H784V1120H672zM672 896V784H784V896H672zM672 672V560H784V672H672zM672 448V336H784V448H672zM336 896V784H448V896H336zM336 672V560H448V672H336zM336 448V336H448V448H336zM1456 1680H1792V1456H0V1680H336V1792H448V1680H1344V1792H1456V1680z" />
    <glyph glyph-name="CalendarWeek"
      unicode="&#xEA77;"
      horiz-adv-x="1792" d=" M1456 1680H1792V112H0V1680H336V1792H448V1680H1344V1792H1456V1680zM336 1568H112V1344H1680V1568H1456V1456H1344V1568H448V1456H336V1568zM112 224H1680V1232H112V224zM672 336V1120H784V336H672zM336 336V1120H448V336H336zM1344 336V1120H1456V336H1344zM1008 336V1120H1120V336H1008z" />
    <glyph glyph-name="CaligraphyPen"
      unicode="&#xEA78;"
      horiz-adv-x="1792" d=" M1460.375 947.625L1063.125 154Q1060.5 121.625 1046.5 93.625T1009.75 44.625T957.6875 11.8125T896 0Q862.75 0 833.875 11.8125T782.25 44.625T745.5 93.625T728.875 154L331.625 947.625L463.75 1344H336V1792H448V1456H1344V1792H1456V1344H1328.25zM1339.625 956.375L1210.125 1344H581.875L452.375 956.375L840 181.125V910.875Q814.625 925.75 799.3125 952T784 1008Q784 1031.625 792.75 1051.75T816.8125 1087.1875T852.25 1111.25T896 1120T939.75 1111.25T975.1875 1087.1875T999.25 1051.75T1008 1008Q1008 978.25 992.6875 952T952 910.875V181.125z" />
    <glyph glyph-name="CallForwardInternational"
      unicode="&#xEA79;"
      horiz-adv-x="1792" d=" M0 224L672 1568L1344 224H0zM1383.375 1607.375L1702.75 1288L1383.375 968.625L1304.625 1047.375L1488.375 1232H1008V1344H1488.375L1304.625 1528.625z" />
    <glyph glyph-name="CallForwardInternationalMirrored"
      unicode="&#xEA7A;"
      horiz-adv-x="1792" d=" M1702.75 224L1030.792 1568L358.834 224H1702.7552500000002zM319.4590000000001 1607.375L0.1032500000001 1288L319.4590000000001 968.625L398.2037500000001 1047.375L214.4660000000001 1232H694.8112500000001V1344H214.4660000000001L398.2037500000001 1528.625z" />
    <glyph glyph-name="CallForwardRoaming"
      unicode="&#xEA7B;"
      horiz-adv-x="1792" d=" M0 224L672 1568L1344 224H0zM181.125 336H1162.875L672 1317.75zM1383.375 1607.375L1702.75 1288L1383.375 968.625L1304.625 1047.375L1488.375 1232H1008V1344H1488.375L1304.625 1528.625z" />
    <glyph glyph-name="CallForwardRoamingMirrored"
      unicode="&#xEA7C;"
      horiz-adv-x="1792" d=" M1702.75 224L1030.792 1568L358.834 224H1702.7552500000002zM1521.63375 336H539.9449999999999L1030.79025 1317.75zM319.4590000000001 1607.375L0.1032500000001 1288L319.4590000000001 968.625L398.2037500000001 1047.375L214.4660000000001 1232H694.8112500000001V1344H214.4660000000001L398.2037500000001 1528.625z" />
    <glyph glyph-name="CallForwarding"
      unicode="&#xEA7D;"
      horiz-adv-x="1792" d=" M896 1232H1488.375L1220.625 1500.625L1299.375 1579.375L1702.75 1176L1299.375 772.625L1220.625 851.375L1488.375 1120H896V1232zM1338.75 648.375Q1372.875 648.375 1405.25 635.25T1462.125 597.625Q1480.5 579.25 1503.6875 558.6875T1551.375 515.8125T1598.625 469T1639.75 418.6875T1669.0625 364.875T1680 307.125Q1680 273 1666.875 240.625T1629.25 183.75Q1584.625 139.125 1548.75 105T1473.9375 47.25T1387.75 11.8125T1274.875 0Q1179.5 0 1078.875 29.75T878.5 112T683.375 237.125T502.6875 395.5T345.625 576.625T222.25 771.3125T141.3125 969.9375T112 1162Q112 1228.5 123.8125 1275.75T158.8125 1361.5T216.125 1436.3125T295.75 1517.25Q320.25 1541.75 352.625 1554.875T419.125 1568Q462.875 1568 503.5625 1544.375T581 1486.625T650.125 1414.875T709.625 1350.125Q734.125 1325.625 747.25 1293.25T760.375 1226.75T749 1165.9375T720.5625 1116.9375T683.8125 1076.6875T647.0625 1042.125T618.625 1009.3125T607.25 975.625Q607.25 965.125 623.4375 941.9375T666.75 887.6875T729.3125 820.3125T802.8125 745.9375T878.9375 671.125T949.8125 603.3125T1007.5625 548.625T1043.875 513.625Q1062.25 495.25 1087.625 495.25Q1106 495.25 1122.1875 506.625T1154.5625 535.0625T1188.6875 571.8125T1228.5 608.5625T1277.0625 637T1338.75 648.375zM1274.875 112Q1328.25 112 1364.5625 122.0625T1429.75 151.375T1486.1875 198.625T1549.625 262.5Q1568 280.875 1568 306.25Q1568 317.625 1554 339.0625T1518.5625 386.3125T1470.4375 438.375T1418.375 486.5T1371.5625 522.375T1338.75 536.375Q1320.375 536.375 1303.75 525T1270.9375 496.5625T1236.8125 459.8125T1197 423.0625T1148.4375 394.625T1087.625 383.25Q1052.625 383.25 1020.6875 396.8125T964.25 434.875L546.875 852.25Q522.375 876.75 508.8125 908.6875T495.25 975.625Q495.25 1009.75 506.625 1036.4375T535.0625 1085T571.8125 1124.8125T608.5625 1159.375T637 1192.1875T648.375 1226.75Q648.375 1238.125 634.375 1259.125T598.9375 1305.9375T550.8125 1358.4375T498.3125 1406.5625T451.5 1442T419.125 1456Q392.875 1456 374.5 1437.625Q338.625 1401.75 310.625 1374.625T263.375 1318.1875T234.0625 1253T224 1164.625Q224 1080.625 251.125 990.5T326.8125 810.6875T441.875 634.375T586.25 469.875T751.1875 326.375T927.5 213.0625T1105.125 138.6875T1274.875 112z" />
    <glyph glyph-name="CallForwardingMirrored"
      unicode="&#xEA7E;"
      horiz-adv-x="1792" d=" M918.8025 1232H326.46425L594.1967500000001 1500.625L515.4520000000001 1579.375L112.1015000000001 1176L515.4520000000001 772.625L594.1967500000001 851.375L326.4642500000001 1120H918.8025V1232zM476.08225 648.375Q441.959 648.375 409.58575 635.25T352.71425 597.625Q334.341 579.25 311.1535 558.6875T263.4695 515.8125T216.22125 469Q193.473 444.5 175.098 418.6875T145.78725 364.875T134.8515000000001 307.125Q134.8515000000001 273 147.97475 240.625T185.598 183.75Q230.22125 139.125 266.0945000000001 105T340.9017500000001 47.25T427.0840000000001 11.8125T539.952 0Q635.32 0 735.93975 29.75T936.3025 112T1131.41525 237.125T1312.09225 395.5T1469.146 576.625T1592.51225 771.3125T1673.4445 969.9375T1702.7552500000002 1162Q1702.7552500000002 1228.5 1690.9427500000002 1275.75T1655.9445 1361.5T1598.6355 1436.3125T1519.01575 1517.25Q1494.5175 1541.75 1462.14425 1554.875T1395.64775 1568Q1351.8995 1568 1311.2155 1544.375T1233.78325 1486.625T1164.66175 1414.875T1105.16525 1350.125Q1080.66525 1325.625 1067.542 1293.25T1054.417 1226.75T1065.792 1165.9375T1094.22775 1116.9375T1130.976 1076.6875Q1150.6617500000002 1058.75 1167.7242500000002 1042.125T1196.1600000000003 1009.3125T1207.5350000000003 975.625Q1207.5350000000003 965.125 1191.3492500000002 941.9375T1148.0385 887.6875T1085.4795000000001 820.3125T1011.9830000000002 745.9375T935.8632500000002 671.125T864.9917500000003 603.3125T807.2452500000003 548.625T770.9345000000003 513.625Q752.5595000000003 495.25 727.1862500000003 495.25Q708.8112500000003 495.25 692.6255000000003 506.625T660.2522500000003 535.0625T626.1290000000004 571.8125T586.3182500000004 608.5625T537.7575000000004 637T476.0735000000004 648.375zM539.95375 112Q486.58225 112 450.2715 122.0625T385.0875 151.375T328.6535 198.625T265.2195000000001 262.5Q246.8445000000001 280.875 246.8445000000001 306.25Q246.8445000000001 317.625 260.8445000000001 339.0625T296.28025 386.3125T344.4035 438.375T396.4625000000001 486.5T443.27325 522.375T476.084 536.375Q494.45725 536.375 511.08225 525T543.893 496.5625T578.01625 459.8125T617.827 423.0625T666.386 394.625T727.1949999999999 383.25Q762.1932499999999 383.25 794.1289999999999 396.8125T850.5629999999999 434.875L1267.9134999999999 852.25Q1292.41175 876.75 1305.97425 908.6875T1319.53675 975.625Q1319.53675 1009.75 1308.16175 1036.4375T1279.7259999999999 1085T1242.9777499999998 1124.8125T1206.2294999999997 1159.375T1177.7937499999996 1192.1875T1166.4187499999996 1226.75Q1166.4187499999996 1238.125 1180.4187499999996 1259.125T1215.8544999999997 1305.9375T1263.9759999999997 1358.4375T1316.4742499999998 1406.5625T1363.2832499999997 1442Q1384.2832499999997 1456 1395.6564999999998 1456Q1421.90475 1456 1440.27975 1437.625Q1476.153 1401.75 1504.15125 1374.625T1551.3995 1318.1875T1580.71025 1253T1590.77275 1164.625Q1590.77275 1080.625 1563.6495 990.5T1487.9655 810.6875T1372.91175 634.375Q1306.41525 547.75 1228.5455 469.875T1063.6185 326.375T887.3165 213.0625T709.70375 138.6875T539.96425 112z" />
    <glyph glyph-name="Camera"
      unicode="&#xEA7F;"
      horiz-adv-x="1792" d=" M1792 1568V224H0V1568H480.375L592.375 1680H1199.625L1311.625 1568H1792zM1680 1456H1264.375L1152.375 1568H639.625L527.625 1456H112V336H1680V1456zM896 1344Q988.75 1344 1070.5625 1309T1213.1875 1213.1875T1309 1070.5625T1344 896T1309 721.4375T1213.1875 578.8125T1070.5625 483T896 448T721.4375 483T578.8125 578.8125T483 721.4375T448 896T483 1070.5625T578.8125 1213.1875T721.4375 1309T896 1344zM896 560Q965.125 560 1026.375 586.6875T1133.125 658.875T1205.3125 765.625T1232 896T1205.3125 1026.375T1133.125 1133.125T1026.375 1205.3125T896 1232T765.625 1205.3125T658.875 1133.125T586.6875 1026.375T560 896T586.6875 765.625T658.875 658.875T765.625 586.6875T896 560zM280 1344Q302.75 1344 319.375 1327.375T336 1288T319.375 1248.625T280 1232T240.625 1248.625T224 1288T240.625 1327.375T280 1344z" />
    <glyph glyph-name="Cancel"
      unicode="&#xEA80;"
      horiz-adv-x="1792" d=" M1579.375 1500.625L975.625 896L1579.375 291.375L1500.625 212.625L896 816.375L291.375 212.625L212.625 291.375L816.375 896L212.625 1500.625L291.375 1579.375L896 975.625L1500.625 1579.375L1579.375 1500.625z" />
    <glyph glyph-name="Caption"
      unicode="&#xEA81;"
      horiz-adv-x="1792" d=" M0 1568H1792V224H0V1568zM1680 336V1456H112V336H1680zM1568 1344V448H224V1344H1568zM1456 560V1232H336V560H1456zM0 0V112H1120V0H0z" />
    <glyph glyph-name="Car"
      unicode="&#xEA82;"
      horiz-adv-x="1792" d=" M336 784Q359.625 784 379.75 775.25T415.1875 751.1875T439.25 715.75T448 672T439.25 628.25T415.1875 592.8125T379.75 568.75T336 560T292.25 568.75T256.8125 592.8125T232.75 628.25T224 672T232.75 715.75T256.8125 751.1875T292.25 775.25T336 784zM1456 784Q1479.625 784 1499.75 775.25T1535.1875 751.1875T1559.25 715.75T1568 672T1559.25 628.25T1535.1875 592.8125T1499.75 568.75T1456 560T1412.25 568.75T1376.8125 592.8125T1352.75 628.25T1344 672T1352.75 715.75T1376.8125 751.1875T1412.25 775.25T1456 784zM1759.625 1008L1701.875 951.125Q1703.625 946.75 1710.625 924.875T1727.6875 873.25T1749.125 809.375T1770.125 746.8125T1785.875 699.5625L1792 680.75V112Q1792 88.375 1783.25 68.25T1759.1875 32.8125T1723.75 8.75T1680 0H1568Q1544.375 0 1524.25 8.75T1488.8125 32.8125T1464.75 68.25T1456 112H336Q336 88.375 327.25 68.25T303.1875 32.8125T267.75 8.75T224 0H112Q88.375 0 68.25 8.75T32.8125 32.8125T8.75 68.25T0 112V680.75L6.125 699.5625L21.875 746.8125L42.875 809.375L64.3125 873.25L81.375 924.875L90.125 951.125L32.375 1008H0V1120H79.625L129.5 1069.25L194.25 1264.375Q208.25 1307.25 234.9375 1342.6875T296.625 1403.0625T373.1875 1442T460.25 1456H1331.75Q1377.25 1456 1418.8125 1442T1495.375 1403.0625T1556.625 1342.6875T1597.75 1264.375L1662.5 1069.25L1712.375 1120H1792V1008H1759.625zM460.25 1344Q405.125 1344 361.8125 1312.5T301 1229.375L226.625 1008H1565.375L1491 1229.375Q1473.5 1281 1430.1875 1312.5T1331.75 1344H460.25zM1232 266.875L1141 448H651L560 266.875V224H1232V266.875zM1680 224V663.25L1674.75 679.4375L1661.1875 720.125L1643.25 773.9375L1624.875 829.0625L1609.5625 873.25L1602.125 896H189.875Q188.125 891.625 182 873.25T167.125 829.0625T148.75 773.9375T130.8125 720.125T117.25 679.4375L112 663.25V224H448V293.125L581 560H1211L1344 293.125V224H1680z" />
    <glyph glyph-name="CashDrawer"
      unicode="&#xEA83;"
      horiz-adv-x="1792" d=" M1687 560H1792V0H0V560H105L217 784H112V1232L392 1792H1400L1680 1232V784H1575zM672 1120H510.125L343 784H672V1120zM784 1120V784H1008V1120H784zM1120 1120V784H1449L1281.875 1120H1120zM1568 896V1120H1406.125L1518.125 896H1568zM461.125 1680L237.125 1232H1554.875L1330.875 1680H461.125zM224 896H273.875L385.875 1120H224V896zM286.125 672L231 560H1561L1505.875 672H286.125zM1680 112V448H112V112H1680zM1120 336V224H672V336H1120z" />
    <glyph glyph-name="CellPhone"
      unicode="&#xEA84;"
      horiz-adv-x="1792" d=" M1344 1792Q1367.625 1792 1387.75 1783.25T1423.1875 1759.1875T1447.25 1723.75T1456 1680V112Q1456 88.375 1447.25 68.25T1423.1875 32.8125T1387.75 8.75T1344 0H448Q424.375 0 404.25 8.75T368.8125 32.8125T344.75 68.25T336 112V1680Q336 1703.625 344.75 1723.75T368.8125 1759.1875T404.25 1783.25T448 1792H1344zM1344 1680H448V112H1344V1680zM784 336H1008V224H784V336z" />
    <glyph glyph-name="Certificate"
      unicode="&#xEA85;"
      horiz-adv-x="1792" d=" M1680 1199.625V0H896V112H1568V1120H1008V1680H448V1133.125Q389.375 1119.125 336 1089.375V1792H1087.625zM1120 1232H1488.375L1120 1600.375V1232zM896 672Q896 600.25 866.6875 535.0625T784 421.75V21L560 133L336 21V421.75Q282.625 469.875 253.3125 535.0625T224 672Q224 741.125 250.25 802.375T322.4375 909.5625T429.1875 981.75T560 1008Q629.125 1008 690.375 981.75T797.5625 909.5625T869.75 802.375T896 672zM672 355.25Q616 336 560 336T448 355.25V203L560 259L672 203V355.25zM560 448Q606.375 448 647.0625 465.5T718.375 513.625T766.5 584.9375T784 672T766.5 759.0625T718.375 830.375T647.0625 878.5T560 896T472.9375 878.5T401.625 830.375T353.5 759.0625T336 672T353.5 584.9375T401.625 513.625T472.9375 465.5T560 448z" />
    <glyph glyph-name="Characters"
      unicode="&#xEA86;"
      horiz-adv-x="1792" d=" M569.625 1008L868 112H746.375L672 336H336L261.625 112H140L438.375 1008H569.625zM634.375 448L504 840L373.625 448H634.375zM705.25 1316Q706.125 1376.375 706.5625 1435.875T705.25 1555.75Q705.25 1560.125 707 1565.375Q714 1567.125 718.375 1567.125Q755.125 1566.25 791.4375 1565.375T864.5 1564.5H1105.125Q1105.125 1592.5 1104.6875 1622.25T1097.25 1680Q1157.625 1680 1217.125 1674.75Q1222.375 1673.875 1228.0625 1672.125T1233.75 1663.375Q1233.75 1658.125 1231.125 1652.875T1226.75 1642.375Q1225 1638 1223.6875 1628.8125T1221.9375 1609.5625T1221.5 1590.3125V1564.5H1480.5Q1517.25 1564.5 1553.5625 1565.375T1626.625 1567.125Q1632.75 1567.125 1638 1564.5Q1640.625 1560.125 1640.625 1555.75Q1639.75 1540.875 1638.875 1524.6875T1638 1493.625V1442.875Q1638 1411.375 1638.875 1379.4375T1640.625 1316Q1640.625 1313.375 1640.1875 1309.875T1638 1304.625Q1631 1302.875 1626.625 1302.875T1606.5 1302.4375T1573.25 1302T1541.3125 1302.4375T1524.25 1305.5Q1522.5 1315.125 1522.0625 1336.5625T1522.0625 1382.0625T1522.9375 1428.4375T1523.375 1463H821.625Q821.625 1458.625 822.0625 1445.5T822.5 1415.3125V1343.5625L821.625 1316.4375L819 1303.75Q812 1302 807.625 1302H718.375Q708.75 1302 707 1304.625T705.25 1316zM1664.25 1090.25Q1666 1083.25 1666 1078.875V994.875Q1666 991.375 1664.25 984.375Q1657.25 982.625 1652.875 982.625Q1617.875 983.5 1583.75 984.375T1514.625 985.25H1233.75Q1232.875 932.75 1234.1875 879.8125T1237.25 774.375Q1238.125 752.5 1230.25 730.625T1204 695.625Q1191.75 686.875 1169.4375 682.0625T1121.75 675.0625T1072.3125 672.4375T1034.25 672Q1029 672 1017.625 672.4375T1001.875 677.25Q999.25 679.875 995.75 691.25T990.5 707Q984.375 729.75 976.0625 749.4375T955.5 789.25Q985.25 785.75 1015 784.4375T1074.5 783.125Q1095.5 783.125 1106.4375 789.6875T1117.375 819V985.25H838.25Q803.25 985.25 768.25 984.375L698.25 982.625Q691.25 982.625 687.75 985.25Q686 990.5 686 994.875V1078.875Q686 1081.5 686.4375 1085.4375T688.625 1091.125Q693.875 1092.875 698.25 1092.875L768.25 1091.125L838.25 1090.25H1117.375Q1115.625 1113 1115.1875 1136.1875T1110.375 1182.125Q1129.625 1180.375 1148 1178.625T1185.625 1175.125Q1216.25 1197 1244.25 1221.5T1300.25 1271.375H1030.75Q994 1271.375 957.6875 1270.5T884.625 1268.75Q877.625 1268.75 874.125 1271.375Q872.375 1276.625 872.375 1281V1364.125Q872.375 1367.625 874.125 1374.625Q881.125 1376.375 884.625 1376.375Q921.375 1375.5 957.6875 1374.625T1030.75 1373.75H1357.125Q1371.125 1373.75 1383.375 1377.6875T1405.25 1381.625Q1412.25 1381.625 1425.375 1371.125T1451.625 1346.625T1474.8125 1318.1875T1484.875 1296.75Q1484.875 1288 1479.1875 1283.1875T1466.5 1274.875Q1454.25 1268.75 1442.875 1259.125T1421 1240.75Q1375.5 1203.125 1329.5625 1167.6875T1233.75 1099.875V1090.25H1514.625Q1549.625 1090.25 1583.75 1091.125T1652.875 1092.875Q1659 1092.875 1664.25 1090.25z" />
    <glyph glyph-name="ChatBubbles"
      unicode="&#xEA87;"
      horiz-adv-x="1792" d=" M1792 672H1456V448H560L224 112V448H0V1456H224V1792H1792V672zM1344 1344H112V560H336V382.375Q380.625 427 423.9375 471.625T513.625 560H1344V1344zM1680 1680H336V1456H1456V784H1680V1680z" />
    <glyph glyph-name="CheckMark"
      unicode="&#xEA88;"
      horiz-adv-x="1792" d=" M1528.625 1383.375L1607.375 1304.625L672 368.375L184.625 856.625L263.375 935.375L672 527.625L1528.625 1383.375z" />
    <glyph glyph-name="Checkbox"
      unicode="&#xEA89;"
      horiz-adv-x="1792" d=" M0 1792H1792V0H0V1792zM1680 112V1680H112V112H1680z" />
    <glyph glyph-name="CheckboxComposite"
      unicode="&#xEA8A;"
      horiz-adv-x="1792" d=" M0 1792H1792V0H0V1792zM1680 112V1680H112V112H1680zM672 368.375L296.625 744.625L375.375 823.375L672 527.625L1416.625 1271.375L1495.375 1192.625L672 368.375z" />
    <glyph glyph-name="CheckboxCompositeReversed"
      unicode="&#xEA8B;"
      horiz-adv-x="1792" d=" M0 1792H1792V0H0V1792zM672 368.375L1495.375 1192.625L1416.625 1271.375L672 527.625L375.375 823.375L296.625 744.625z" />
    <glyph glyph-name="CheckboxFill"
      unicode="&#xEA8C;"
      horiz-adv-x="1792" d=" M0 1792H1792V0H0V1792z" />
    <glyph glyph-name="CheckboxIndeterminate"
      unicode="&#xEA8D;"
      horiz-adv-x="1792" d=" M448 1344H1344V448H448V1344z" />
    <glyph glyph-name="ChevronDown"
      unicode="&#xEA8E;"
      horiz-adv-x="1792" d=" M896 582.75L1696.625 1383.375L1775.375 1304.625L896 425.25L16.625 1304.625L95.375 1383.375L896 582.75z" />
    <glyph glyph-name="ChevronDownMed"
      unicode="&#xEA8F;"
      horiz-adv-x="1792" d=" M896 342.125L21.875 1216.25L127.75 1322.125L896 553.875L1664.25 1322.125L1770.125 1216.25L896 342.125z" />
    <glyph glyph-name="ChevronDownSmall"
      unicode="&#xEA90;"
      horiz-adv-x="1792" d=" M1574.125 1486.625L1785.875 1275.75L896 385.875L6.125 1275.75L217.875 1486.625L896 808.5L1574.125 1486.625z" />
    <glyph glyph-name="ChevronLeft"
      unicode="&#xEA91;"
      horiz-adv-x="1792" d=" M1341.375 81.375L1262.625 2.625L368.375 896L1262.625 1789.375L1341.375 1710.625L527.625 896L1341.375 81.375z" />
    <glyph glyph-name="ChevronLeftMed"
      unicode="&#xEA92;"
      horiz-adv-x="1792" d=" M1216.25 21.875L342.125 896L1216.25 1770.125L1322.125 1664.25L553.875 896L1322.125 127.75L1216.25 21.875z" />
    <glyph glyph-name="ChevronLeftSmall"
      unicode="&#xEA93;"
      horiz-adv-x="1792" d=" M1486.625 1574.125L808.5 896L1486.625 217.875L1275.75 6.125L385.875 896L1275.75 1785.875L1486.625 1574.125z" />
    <glyph glyph-name="ChevronRight"
      unicode="&#xEA94;"
      horiz-adv-x="1792" d=" M450.625 81.375L1264.375 896L450.625 1710.625L529.375 1789.375L1423.625 896L529.375 2.625L450.625 81.375z" />
    <glyph glyph-name="ChevronRightMed"
      unicode="&#xEA95;"
      horiz-adv-x="1792" d=" M575.75 21.875L469.875 127.75L1238.125 896L469.875 1664.25L575.75 1770.125L1449.875 896L575.75 21.875z" />
    <glyph glyph-name="ChevronRightSmall"
      unicode="&#xEA96;"
      horiz-adv-x="1792" d=" M516.25 1785.875L1406.125 896L516.25 6.125L305.375 217.875L983.5 896L305.375 1574.125L516.25 1785.875z" />
    <glyph glyph-name="ChevronUp"
      unicode="&#xEA97;"
      horiz-adv-x="1792" d=" M1710.625 450.625L896 1264.375L81.375 450.625L2.625 529.375L896 1423.625L1789.375 529.375L1710.625 450.625z" />
    <glyph glyph-name="ChevronUpMed"
      unicode="&#xEA98;"
      horiz-adv-x="1792" d=" M1664.25 469.875L896 1238.125L127.75 469.875L21.875 575.75L896 1449.875L1770.125 575.75L1664.25 469.875z" />
    <glyph glyph-name="ChevronUpSmall"
      unicode="&#xEA99;"
      horiz-adv-x="1792" d=" M896 1406.125L1785.875 516.25L1574.125 305.375L896 983.5L217.875 305.375L6.125 516.25L896 1406.125z" />
    <glyph glyph-name="ChineseBoPoMoFo"
      unicode="&#xEA9A;"
      horiz-adv-x="1792" d=" M1561 1232V1155Q1561 985.25 1559.25 817.25T1543.5 480.375Q1537.375 403.375 1529.0625 326.375T1503.25 175Q1493.625 136.5 1473.5 104.5625T1424.5 49.4375T1359.75 13.125T1284.5 0H896V112H1284.5Q1324.75 112 1354.5 136.9375T1393.875 199.5Q1401.75 231 1407.875 267.75T1418.8125 342.5625T1426.6875 418.25T1432.375 489.125Q1445.5 647.5 1450.3125 804.5625T1456.875 1120H225.75V1240.75L432.25 1666L532.875 1617L345.625 1232H1561z" />
    <glyph glyph-name="ChineseChangjie"
      unicode="&#xEA9B;"
      horiz-adv-x="1792" d=" M56.875 81.375Q165.375 193.375 237.125 329T329.875 621.25Q331.625 637.875 333.8125 654.5T336 687.75V1232H1456V672H447.125Q432.25 476 353.0625 310.1875T137.375 3.5zM1344 784V896H448V784H1344zM448 1120V1008H1344V1120H448zM448 560H1456V0H1344V112H560V0H448V560zM560 448V224H1344V448H560zM896 1785Q1059.625 1624.875 1254.3125 1540.4375T1680 1456V1344Q1564.5 1344 1451.625 1365.4375T1232 1429.75V1344H560V1429.75Q453.25 1386.875 340.375 1365.4375T112 1344V1456Q343 1456 537.25 1540.4375T896 1785zM1169 1456Q1094.625 1490.125 1026.375 1534.75T896 1632.75Q833.875 1579.375 765.625 1534.75T623 1456H1169z" />
    <glyph glyph-name="ChinesePinyin"
      unicode="&#xEA9C;"
      horiz-adv-x="1792" d=" M382.375 1420.125Q342.125 1370.25 299.25 1323.4375T208.25 1234.625L133.875 1288.875Q224.875 1370.25 302.75 1463T435.75 1665.125L519.75 1631.875Q501.375 1598.625 482.5625 1566.25T442.75 1502.375H889V1420.125H573.125Q610.75 1378.125 647.0625 1333.5T712.25 1239.875L629.125 1209.25Q590.625 1267 546 1318.625T453.25 1420.125H382.375zM241.5 969.5H329.875V126H241.5V969.5zM397.25 1218.875Q455 1176.875 508.375 1130.5T608.125 1029.875L541.625 977.375Q490 1027.25 436.625 1074.9375T324.625 1163.75zM1652.875 1502.375V1420.125H1287.125Q1318.625 1375.5 1351 1329.125T1406.125 1232.875L1323 1201.375Q1292.375 1259.125 1254.75 1313.375T1177.75 1420.125H1081.5Q1039.5 1372.875 995.3125 1328.6875T901.25 1246L829.5 1299.375Q871.5 1335.25 916.125 1377.6875T1002.75 1466.0625T1081.0625 1561T1142.75 1659.875L1225.875 1623.125Q1210.125 1591.625 1190 1561.4375T1149.75 1502.375H1652.875zM695.625 1163.75H1560.125V253.75Q1560.125 213.5 1550.5 187.6875T1522.0625 146.5625T1474.8125 125.5625T1409.625 119.875T1335.6875 120.75T1261.75 122.5L1236.375 207.375Q1302.875 204.75 1369.375 204.75Q1380.75 204.75 1398.25 203.875T1432.8125 205.625T1462.125 216.125T1474.375 241.5V1080.625H695.625V1163.75zM1245.125 292.25H559.125V929.25H1245.125V292.25zM1155 569.625H645.75V370.125H1155V569.625zM1155 849.625H645.75V649.25H1155V849.625z" />
    <glyph glyph-name="ChineseQuick"
      unicode="&#xEA9D;"
      horiz-adv-x="1792" d=" M388.5 1419.25Q330.75 1503.25 255.9375 1574.125T103.25 1709.75L175 1790.25Q253.75 1723.75 327.6875 1651.5625T462 1495.375zM600.25 436.625Q670.25 476.875 738.9375 523.25T871.0625 621.25T992.25 731.5T1099 855.75H713.125V1308.125H1154.125V1489.25H650.125V1591.625H1154.125V1792H1258.25V1591.625H1763.125V1489.25H1258.25V1308.125H1690.5V855.75H1258.25V817.25Q1400 741.125 1527.75 645.3125T1770.125 436.625L1706.25 352.625Q1659 399 1605.1875 448.875T1494.0625 545.5625T1377.25 634.375T1258.25 707V263.375H1154.125V765.625Q1053.5 638.75 929.6875 536.8125T667.625 352.625zM1258.25 956.375H1586.375V1205.75H1258.25V956.375zM1154.125 956.375V1205.75H817.25V956.375H1154.125zM399 394.625Q457.625 334.25 529.375 295.3125T679.875 233.1875T841.3125 200.8125T1004.5 191.625H1792L1764.875 91.875H1057Q966.875 91.875 870.1875 100.625T679.875 133T500.9375 199.0625T349.125 308.875Q296.625 234.5 237.5625 166.6875T111.125 37.625L29.75 107.625Q180.25 236.25 282.625 395.5T424.375 750.75H91V849.625Q140.875 910.875 189 971.6875T286.125 1093.75Q317.625 1134 350 1174.6875T410.375 1258.25H51.625V1356.25H530.25V1258.25L216.125 849.625H528.5Q528.5 825.125 529.375 800.1875T528.5 750.75Q527.625 738.5 525 730.625T518.875 710.5Q498.75 627.375 469.875 548.1875T399 394.625z" />
    </font>
</defs>
</svg>
